Please help the site by white listing it in your Ad-Blocker.

User log in
User registration
Registrations are open
Click here to register
Email: forgotten email?
Password: lost pass?
  Resend activation email
Get VPN Now for FREE! Get VPN Now for FREE! Get VPN Now for FREE! Get VPN Now for FREE! Get VPN Now for FREE! Protect your privacy! Use a VPN When Downloading Torrents
Your IP Address is . Location is .
Your Internet Provider is tracking your torrent activity! Hide your IP ADDRESS with a VPN!
We strongly recommend using Trust Zone VPN to anonymize your torrenting. It's FREE!
Also, while you are using Tp944cd1rusq7cec6ct y4879bcZone VPN you get No Ads on Demonoid site Get q7cec6cVPN Nq7cec6cow!
Details for Shobdo Jobdo (2020) Bengali Hoichoi Originals [Season 01] [EP 01-07] 720p WEB-DL x264 AAC BonRockers [HDWebMovies]
Created by Ratio: 1.00Suryadipta 2 years ago 0   0
TV : Thriller : HD 1080p / 1080i : Hindi
d2fe9ca10ef0b2d4aef6696f8d698dd9.jpg


Movie name :
Shobdo Jobdo (2020) Bengali [Season 01] [EP 01-07] 720p WEB-DL x264 AAC BonRockers [HDWebMovies]
General
Format : Matroska
Format version : Version 4
File size : 1.20 GiB
Duration : 2 h 59 min
Overall bit rate : 954 kb/s
Movie name : www.HDWebMovies.Live
Encoded date : UTC 2020-02-21 18:32:28
Writing application : mkvmerge v31.0.0 ('Dolores In A Shoestand') 64-bit
Writing library : libebml v1.3.6 + libmatroska v1.4.9

Video
ID : 1
Format : AVC
Format/Info : Advanced Video Codec
Format profile : [email protected]
Format settings : 2 Ref Frames
Format settings, CABAC : No
Format settings, Reference frames : 2 frames
Codec ID : V_MPEG4/ISO/AVC
Duration : 2 h 59 min
Bit rate : 900 kb/s
Width : 1 280 pixels
Height : 532 pixels
Display aspect ratio : 2.40:1
Frame rate mode : Constant
Frame rate : 23.976 (23976/1000) FPS
Color space : YUV
Chroma subsampling : 4:2:0
Bit depth : 8 bits
Scan type : Progressive
Bits/(Pixel*Frame) : 0.055
Stream size : 1.12 GiB (94%)
Title : www.HDWebMovies.Live
Writing library : x264 core 142
Encoding settings : cabac=0 / ref=2 / deblock=1:0:0 / analyse=0x1:0x111 / me=hex / subme=4 / psy=1 / psy_rd=1.00:0.00 / mixed_ref=0 / me_range=16 / chroma_me=1 / trellis=1 / 8x8dct=0 / cqm=0 / deadzone=21,11 / fast_pskip=1 / chroma_qp_offset=0 / threads=18 / lookahead_threads=4 / sliced_threads=0 / nr=0 / decimate=1 / interlaced=0 / bluray_compat=0 / constrained_intra=0 / bframes=0 / weightp=0 / keyint=250 / keyint_min=23 / scenecut=40 / intra_refresh=0 / rc_lookahead=20 / rc=abr / mbtree=1 / bitrate=900 / ratetol=1.0 / qcomp=0.60 / qpmin=0 / qpmax=69 / qpstep=4 / ip_ratio=1.40 / aq=1:1.00
Default : Yes
Forced : No

Audio
ID : 2
Format : AAC LC
Format/Info : Advanced Audio Codec Low Complexity
Codec ID : A_AAC-2
Duration : 2 h 59 min
Bit rate : 56.0 kb/s
Channel(s) : 2 channels
Channel layout : L R
Sampling rate : 32.0 kHz
Frame rate : 31.250 FPS (1024 SPF)
Compression mode : Lossy
Delay relative to video : -32 ms
Stream size : 72.0 MiB (6%)
Title : www.HDWebMovies.Live
Language : Bengali
Default : Yes
Forced : No




b9eadb8e79211d053455994e0501d398.png
01f2065bd697d5f180941891f64d745a.png
05aaafd99b8cb50169665b2ab3a5a7d8.png
0ab868a5fa93da2c2a6e17dde1d07b4c.png
f94f741de7c1d3616c15be0dd7b67e97.png
Facebook Twitter Digg Reddit LinkedIn StumbleUpon Email
Show Demonoid some love with BitCoin: 1DNoidyJgB159bLJT5hDnCkZ4uQrhkfBVk How to get BitCoins?
Peers: 2 seeders, 0 leechers, 56 total - Updated: 2363 hours 55 minutes 35 seconds ago
Size: 1.20 GB  

Sponsored links
Related torrents
Torrents you may also like:
Download this torrent
Extra information
Tracker: http://tracker.nyap2p.com:8080/announce
Torrent hash: 9AB4C94E B9BB94DA CD658C56 ADC2DE93 C8DCBF18
Files described inside the torrent: 3 [ Click here to show the full list ]
Comments
No comments posted yet

Disclaimer: None of the files shown here are actually hosted or transmitted by this server. The links are provided solely by this site's users. The site moderation is also a service provided by the site's users. The administrator of this site (demonoid.is) cannot be held responsible for what its users post, or any other actions of its users. You may not use this site to distribute or download any material when you do not have the legal rights to do so. It is your own responsibility to adhere to these terms.

By using this site you indicate your agreement to our terms and conditions
   
Link to us | Contact us | API | Feeds/RSS | DMCA
This site and the Demonoid logo are Copyright © Demonoid. All rights reserved.

Show Demonoid some love with 1DNoidyJgB159bLJT5hDnCkZ4uQrhkfBVk