User log in
User registration
Registrations are closed. If you have an invitation code, click here, or join our twitter, we post invites often there.
Email: forgotten email?
Password: lost pass?
  Resend activation email
Protect your privacy! Use a VPN When Downloading Torrents
Your IP Address is . Location is .
Your Internet Provider is tracking your torrent activity! Hide your IP ADDRESS with a VPN!
We strongly recommend using NORD VPN to anonymize your torrenting.
Also, while you are using NORD you get No Ads for Demonoid members Get VPN Now!
Details for Spider-Man Far From Home 2019 BR EAC3 VFF VFQ ENG 1080p x265 10Bits T0M (Spider-Man Loin des siens,Spider-Man Homecoming 2)
Created by Ratio: 1.00T0M 1 year ago[ Add to bookmark ]
Movies : Action : HEVC / x265 : French

______________________________________________________________________________________________________________
Spider-Man : Far From Home 2019
Bluray · 1080p x265 10bits · DD+ 5.1 VFF VFQ ENG
¯¯¯¯¯¯¯¯¯¯¯¯¯¯¯¯¯¯¯¯¯¯¯¯¯¯¯¯¯¯¯¯¯¯¯¯¯¯¯¯¯¯¯¯¯¯¯¯¯¯¯¯¯¯¯¯¯¯¯¯¯¯¯¯¯¯¯¯¯¯¯¯¯¯¯¯¯¯¯¯



Year : 2019
Country : United States
French title : Spider-Man : Far From Home
Original title : Spider-Man : Far From Home
Quebec title : Spider-Man : Loin des siens
Director : Jon Watts
Music from : Michael Giacchino
Actors : Tom Holland, Samuel L. Jackson, Jake Gyllenhaal, Marisa Tomei, Zendaya, Cobie Smulders, Jon Favreau
JB Smoove, Jacob Batalon, Martin Starr, Tony Revolori, Angourie Rice, Numan Acar, Remy Hii
Genre : Super hero, Action, Adventure, Sci-Fi
Certificate :   All public
Budget : 160 000 000 $ · Recipe : 1 125 862 963 $ · ratio : 704 %
Link : Allociné 4,0/5 ·  IMDB 7,7/10 ·  TMDB 77% ·  SensCritique 6,4/10 ·  Wiki ·  Bande Annonce

French Plot
L'araignée sympa du quartier décide de rejoindre ses meilleurs amis Ned, MJ, et le reste de la bande pour des vacances en Europe. Cependant, le projet de Peter de laisser son costume de super-héros derrière lui pendant quelques semaines est rapidement compromis quand il accepte à contrecoeur d'aider Nick Fury à découvrir le mystère de plusieurs attaques de créatures, qui ravagent le continent !
Adaptations des : Marvel Comics 1939


If you enjoy and wish to support, please stay in seeding


Technical Details
¯¯¯¯¯¯¯¯¯¯¯¯¯¯¯¯¯¯¯¯¯¯¯¯¯¯¯¯¯¯¯¯¯¯¯¯¯¯¯¯¯¯¯¯¯¯¯¯¯¯¯¯¯¯¯¯¯¯¯¯¯¯¯¯¯¯¯¯¯¯¯¯¯¯¯¯¯¯¯¯¯¯¯¯¯¯¯¯¯¯¯¯¯¯¯¯¯¯¯¯
     
Media
Matroska 4,05Gio 2h09mn 4476Kbps
Video
HEVC/H265 1920x804 @23.976 [email protected]@Main 10bits 3051Kbps VerySlow
Audio
    True French 5.1 EAC3 448Kbps 48KHz 16bits
    Quebec French 5.1 EAC3 448Kbps 48KHz 16bits
    English 5.1 EAC3 448Kbps 48KHz 16bits
Subtitles
  True French forced SRT
  True French full SRT
  True French full/forced [4k] PGS
  Quebec French forced PGS
  Quebec French full PGS
  English full PGS
    English full SDH PGS
  English forced Incrusté
Chapters
International
Screenshot
     

NFO
¯¯¯¯¯¯¯¯¯¯¯¯¯¯¯¯¯¯¯¯¯¯¯¯¯¯¯¯¯¯¯¯¯¯¯¯¯¯¯¯¯¯¯¯¯¯¯¯¯¯¯¯¯¯¯¯¯¯¯¯¯¯¯¯¯¯¯¯¯¯¯¯¯¯¯¯¯¯¯¯¯¯¯¯¯¯¯¯¯¯¯¯¯¯¯¯¯¯¯¯

General
Complete name                            : Spider-Man Homecoming 2 2019 BR EAC3 VFF VFQ VO 1080p x265 10Bits T0M.mkv
Format                                  : Matroska
Format version                          : Version 4
File size                                : 4.05 GiB
Duration                                : 2 h 9 min
Overall bit rate                        : 4 476 kb/s
Movie name                              : Spider-Man : Far From Home 2019 de Jon Watts avec Tom Holland, Samuel L. Jackson, Jake Gyllenhaal, Marisa Tomei, Zendaya, Cobie Smulders, Jon Favreau, JB Smoove, Jacob Batalon, Martin Starr, Tony Revolori, Angourie Rice, Numan Acar, Remy Hii. Tout public (allocine=222291,imdb=tt632062 T0M
Encoded date                            : UTC 2019-10-31 18:09:03
Writing application                      : mkvmerge v35.0.0 ('All The Love In The World') 64-bit
Writing library                          : libebml v1.3.9 + libmatroska v1.5.2
Cover                                    : Yes
Attachments                              : Cover.jpg

Video
ID                                      : 1
Format                                  : HEVC
Format/Info                              : High Efficiency Video Coding
Format profile                          : Main [email protected]@Main
Codec ID                                : V_MPEGH/ISO/HEVC
Duration                                : 2 h 9 min
Bit rate                                : 3 051 kb/s
Width                                    : 1 920 pixels
Height                                  : 804 pixels
Display aspect ratio                    : 2.40:1
Frame rate mode                          : Constant
Frame rate                              : 23.976 (24000/1001) FPS
Color space                              : YUV
Chroma subsampling                      : 4:2:0
Bit depth                                : 10 bits
Bits/(Pixel*Frame)                      : 0.082
Stream size                              : 2.76 GiB (68%)
Title                                    : Video HEVC 1920x804 @23.976 x265 [email protected]@Main 10bits 3050kbps 2pass veryslow 2014mn
Writing library                          : x265 2.9:[Windows][GCC 8.2.0][64 bit] 10bit
Encoding settings                        : cpuid=1111039 / frame-threads=3 / numa-pools=8 / wpp / no-pmode / no-pme / no-psnr / no-ssim / log-level=2 / input-csp=1 / input-res=1920x804 / interlace=0 / total-frames=0 / level-idc=0 / high-tier=1 / uhd-bd=0 / ref=5 / no-allow-non-conformance / no-repeat-headers / annexb / no-aud / no-hrd / info / hash=0 / no-temporal-layers / open-gop / min-keyint=24 / keyint=240 / gop-lookahead=0 / bframes=8 / b-adapt=2 / b-pyramid / bframe-bias=0 / rc-lookahead=120 / lookahead-slices=0 / scenecut=40 / radl=0 / no-intra-refresh / ctu=64 / min-cu-size=8 / rect / amp / max-tu-size=32 / tu-inter-depth=3 / tu-intra-depth=3 / limit-tu=4 / rdoq-level=2 / dynamic-rd=0.00 / no-ssim-rd / signhide / no-tskip / nr-intra=0 / nr-inter=0 / no-constrained-intra / strong-intra-smoothing / max-merge=4 / limit-refs=1 / limit-modes / me=3 / subme=4 / merange=57 / temporal-mvp / weightp / weightb / no-analyze-src-pics / deblock=0:0 / sao / no-sao-non-deblock / rd=6 / no-early-skip / rskip / no-fast-intra / no-tskip-fast / no-cu-lossless / b-intra / no-splitrd-skip / rdpenalty=0 / psy-rd=2.00 / psy-rdoq=1.00 / no-rd-refine / no-lossless / cbqpoffs=0 / crqpoffs=0 / rc=abr / bitrate=3050 / qcomp=0.60 / qpstep=4 / stats-write=0 / stats-Read=2 / cplxblur=20.0 / qblur=0.5 / ipratio=1.40 / pbratio=1.30 / aq-mode=1 / aq-strength=1.00 / cutree / zone-count=0 / no-strict-cbr / qg-size=32 / no-rc-grain / qpmax=69 / qpmin=0 / no-const-vbv / sar=1 / overscan=0 / videoformat=5 / range=0 / colorprim=1 / transfer=1 / colormatrix=1 / chromaloc=0 / display-window=0 / max-cll=0,0 / min-luma=0 / max-luma=1023 / log2-max-poc-lsb=8 / vui-timing-info / vui-hrd-info / slices=1 / no-opt-qp-pps / no-opt-ref-list-length-pps / no-multi-pass-opt-rps / scenecut-bias=0.05 / no-opt-cu-delta-qp / no-aq-motion / no-hdr / no-hdr-opt / no-dhdr10-opt / no-idr-recovery-sei / analysis-reuse-level=5 / scale-factor=0 / refine-intra=0 / refine-inter=0 / refine-mv=0 / no-limit-sao / ctu-info=0 / no-lowpass-dct / refine-mv-type=0 / copy-pic=1 / max-ausize-factor=1.0 / no-dynamic-refine / no-single-sei
Default                                  : Yes
Forced                                  : No
Color range                              : Limited
Color primaries                          : BT.709
Transfer characteristics                : BT.709
Matrix coefficients                      : BT.709

Audio #1
ID                                      : 2
Format                                  : E-AC-3
Format/Info                              : Enhanced AC-3
Commercial name                          : Dolby Digital Plus
Codec ID                                : A_EAC3
Duration                                : 2 h 9 min
Bit rate mode                            : Constant
Bit rate                                : 448 kb/s
Channel(s)                              : 6 channels
Channel layout                          : L R C LFE Ls Rs
Sampling rate                            : 48.0 kHz
Frame rate                              : 31.250 FPS (1536 SPF)
Compression mode                        : Lossy
Stream size                              : 415 MiB (10%)
Title                                    : Français 5.1 EAC3 448kbps 48khz 16bits
Language                                : French
Service kind                            : Complete Main
Default                                  : Yes
Forced                                  : No

Audio #2
ID                                      : 3
Format                                  : E-AC-3
Format/Info                              : Enhanced AC-3
Commercial name                          : Dolby Digital Plus
Codec ID                                : A_EAC3
Duration                                : 2 h 9 min
Bit rate mode                            : Constant
Bit rate                                : 448 kb/s
Channel(s)                              : 6 channels
Channel layout                          : L R C LFE Ls Rs
Sampling rate                            : 48.0 kHz
Frame rate                              : 31.250 FPS (1536 SPF)
Compression mode                        : Lossy
Delay relative to video                  : 24 ms
Stream size                              : 415 MiB (10%)
Title                                    : Québécois 5.1 EAC3 448kbps 48khz 16bits
Language                                : French
Service kind                            : Complete Main
Default                                  : No
Forced                                  : No

Audio #3
ID                                      : 4
Format                                  : E-AC-3
Format/Info                              : Enhanced AC-3
Commercial name                          : Dolby Digital Plus
Codec ID                                : A_EAC3
Duration                                : 2 h 9 min
Bit rate mode                            : Constant
Bit rate                                : 448 kb/s
Channel(s)                              : 6 channels
Channel layout                          : L R C LFE Ls Rs
Sampling rate                            : 48.0 kHz
Frame rate                              : 31.250 FPS (1536 SPF)
Compression mode                        : Lossy
Stream size                              : 415 MiB (10%)
Title                                    : English 5.1 EAC3 448kbps 48khz 16bits
Language                                : English
Service kind                            : Complete Main
Default                                  : No
Forced                                  : No

Text #1
ID                                      : 5
Format                                  : UTF-8
Codec ID                                : S_TEXT/UTF8
Codec ID/Info                            : UTF-8 Plain Text
Duration                                : 2 h 9 min
Bit rate                                : 0 b/s
Count of elements                        : 24
Stream size                              : 929 Bytes (0%)
Title                                    : Français forcé (Passages)
Language                                : French
Default                                  : Yes
Forced                                  : Yes

Text #2
ID                                      : 6
Format                                  : UTF-8
Codec ID                                : S_TEXT/UTF8
Codec ID/Info                            : UTF-8 Plain Text
Duration                                : 2 h 9 min
Bit rate                                : 54 b/s
Count of elements                        : 1680
Stream size                              : 51.9 KiB (0%)
Title                                    : Français complet (Tous le film)
Language                                : French
Default                                  : No
Forced                                  : No

Text #3
ID                                      : 7
Format                                  : PGS
Muxing mode                              : zlib
Codec ID                                : S_HDMV/PGS
Codec ID/Info                            : Picture based subtitle format used on BDs/HD-DVDs
Duration                                : 2 h 8 min
Bit rate                                : 31.6 kb/s
Count of elements                        : 3348
Stream size                              : 29.1 MiB (1%)
Title                                    : Français complet/forcé [4k] PGS
Language                                : French
Default                                  : No
Forced                                  : No

Text #4
ID                                      : 8
Format                                  : PGS
Muxing mode                              : zlib
Codec ID                                : S_HDMV/PGS
Codec ID/Info                            : Picture based subtitle format used on BDs/HD-DVDs
Duration                                : 2 h 8 min
Bit rate                                : 237 b/s
Count of elements                        : 22
Stream size                              : 224 KiB (0%)
Title                                    : Québécois forcé (Passages) PGS
Language                                : French
Default                                  : No
Forced                                  : Yes

Text #5
ID                                      : 9
Format                                  : PGS
Muxing mode                              : zlib
Codec ID                                : S_HDMV/PGS
Codec ID/Info                            : Picture based subtitle format used on BDs/HD-DVDs
Duration                                : 2 h 8 min
Bit rate                                : 31.6 kb/s
Count of elements                        : 3348
Stream size                              : 29.1 MiB (1%)
Title                                    : Québécois complet (Tous le film) PGS
Language                                : French
Default                                  : No
Forced                                  : No

Text #6
ID                                      : 10
Format                                  : PGS
Muxing mode                              : zlib
Codec ID                                : S_HDMV/PGS
Codec ID/Info                            : Picture based subtitle format used on BDs/HD-DVDs
Duration                                : 2 h 7 min
Bit rate                                : 38.9 kb/s
Count of elements                        : 3450
Stream size                              : 35.5 MiB (1%)
Title                                    : English full (All the movie) PGS
Language                                : English
Default                                  : No
Forced                                  : No

Text #7
ID                                      : 11
Format                                  : PGS
Muxing mode                              : zlib
Codec ID                                : S_HDMV/PGS
Codec ID/Info                            : Picture based subtitle format used on BDs/HD-DVDs
Duration                                : 2 h 8 min
Bit rate                                : 42.1 kb/s
Count of elements                        : 3858
Stream size                              : 38.6 MiB (1%)
Title                                    : English full SDH PGS
Language                                : English
Default                                  : No
Forced                                  : No

Menu
00:00:00.000                            : :01 - 00:00:00
00:09:35.032                            : :02 - 00:09:35
00:16:06.715                            : :03 - 00:16:06
00:25:18.475                            : :04 - 00:25:18
00:35:26.499                            : :05 - 00:35:26
00:41:57.014                            : :06 - 00:41:57
00:49:50.028                            : :07 - 00:49:50
00:57:09.509                            : :08 - 00:57:09
01:04:50.636                            : :09 - 01:04:50
01:15:57.219                            : :10 - 01:15:57
01:22:49.089                            : :11 - 01:22:49
01:29:25.193                            : :12 - 01:29:25
01:36:43.255                            : :13 - 01:36:43
01:44:47.364                            : :14 - 01:44:47
01:52:17.397                            : :15 - 01:52:17
01:55:34.060                            : :16 - 01:55:34
01:57:45.440                            : :17 - 01:57:45
01:59:23.370                            : :18 - 01:59:23
02:07:17.800                            : :19 - 02:07:17


Facebook Twitter Digg Reddit LinkedIn StumbleUpon Email
Show Demonoid some love with BitCoin: 1DNoidyJgB159bLJT5hDnCkZ4uQrhkfBVk How to get BitCoins?
Peers: 2 seeders, 0 leechers, 4 total - Updated: 3 months ago [ Update now ]
Size: 4.05 GB 

Sponsored links
Related torrents
Torrents you may also like:
Download this torrent
Extra information
Tracker: udp://tracker.opentrackr.org:1337/announce
Torrent hash: F9823A0C 40B9FE4C 3628FCC3 F345B464 62DE84E8
Files described inside the torrent: 1 [ Click here to show the full list ]
Comments
No comments posted yet

Disclaimer: None of the files shown here are actually hosted or transmitted by this server. The links are provided solely by this site's users. The site moderation is also a service provided by the site's users. The administrator of this site (demonoid.is) cannot be held responsible for what its users post, or any other actions of its users. You may not use this site to distribute or download any material when you do not have the legal rights to do so. It is your own responsibility to adhere to these terms.

By using this site you indicate your agreement to our terms and conditions
   
Link to us | Contact us | API | Commemoration | Twitter: @DemonoidBT | Feeds/RSS | DMCA
This site and the Demonoid logo are Copyright © Demonoid. All rights reserved.

Show Demonoid some love with 1DNoidyJgB159bLJT5hDnCkZ4uQrhkfBVk