User log in
User registration
Registrations are open
Click here to register
Email: forgotten email?
Password: lost pass?
  Resend activation email
Get VPN Now for FREE! Get VPN Now for FREE! Get VPN Now for FREE! Get VPN Now for FREE! Get VPN Now for FREE! Get VPN Now for FREE! Protect your privacy! Use a VPN When Downloading Torrents
Your IP Address is . Location is .
Your Internet Provider is tracking your torrent activity! Hide your IP ADDRESS with a VPN!
We strongly recommend using Trust Zone VPN to anonymize your torrenting. It's FREE!
Also, while you are using To1c6d9crusl60832et v09ffe3Zone VPN you get No Ads on Demonoid site Get l60832eVPN Nl60832eow!
Details for The Incredible Hulk 2008 BR EAC3 VFF VFQ ENG 1080p x265 10Bits T0M (L'incroyable Hulk)
Created by Ratio: 1.00T0M 3 years ago 0   0
Movies : Action : HEVC / x265 : French
______________________________________________________________________________________________________________
The Incredible Hulk 2008
Bluray · 1080p x265 10bit · DD+ 5.1 VFF VFQ ENG
¯¯¯¯¯¯¯¯¯¯¯¯¯¯¯¯¯¯¯¯¯¯¯¯¯¯¯¯¯¯¯¯¯¯¯¯¯¯¯¯¯¯¯¯¯¯¯¯¯¯¯¯¯¯¯¯¯¯¯¯¯¯¯¯¯¯¯¯¯¯¯¯¯¯¯¯¯¯¯¯

voWFVqfK_o.png

Year : 2008
Country : ovX4oFBe_o.png United States
Original and English Title : The Incredible Hulk
French Title : L'incroyable Hulk
Director : Louis Leterrier
Writer : Zak Penn, Stan Lee, Jack Kirby
Music from : Craig Armstrong
Actors : Edward Norton, Liv Tyler, Tim Roth, William Hurt, Tim Blake Nelson, Ty Burrell, Christina Cabot
Genre : Super hero, Action, Sci-Fi
Certificate : zDhebyzD_o.png All public
Budget : 125 000 000 $ · Recipe : 320 601 040 $ · ratio : 256 %
Link : Allociné [www.allocine.fr] 3,1/5 · IMDB [www.imdb.com] 6,6/10 · TMDB [www.themoviedb.org] 62% · SensCritique [www.senscritique.com] 5,2/10 · RottenTomatoes [www.rottentomatoes.com] 67% (70%) · Wiki [fr.wikipedia.org] · Teaser [www.dailymotion.com]

5XBzD5WuTyVQZeS4VI25z2moMeY.jpg [www.themoviedb.org] 9IlcL0MWSNz8YLzqSooRHCQD4Dt.jpg [www.themoviedb.org] qSizF2i9gz6c6DbAC5RoIq8sVqX.jpg [www.themoviedb.org] j3mjmuHLBW4XQSw53C8Sh0Lh3ZQ.jpg [www.themoviedb.org] dcfdSmVmklb1HXHbB9kySdrl9Nq.jpg [www.themoviedb.org] zXrrbvW2ZKHYHbhujDj8aBlO4yx.jpg [www.themoviedb.org] h1vwbOfITSvDvDq8E9MVvWqMYSr.jpg [www.themoviedb.org]

French Plot
Le scientifique Bruce Banner cherche désespérément un antidote aux radiations gamma qui ont créé Hulk. Il vit dans l'ombre, toujours amoureux de la belle Betty Ross et parcourt la planète à la recherche d'un remède. La force destructrice de Hulk attire le Général Thunderbolt Ross et son bras droit Blonsky qui rêvent de l'utiliser à des fins militaires. Ils tentent de développer un sérum pour créer des soldats surpuissants. De retour aux Etats-Unis, Bruce Banner se découvre un nouvel ennemi. Après avoir essayé le sérum expérimental, Blonsky est devenu L'Abomination, un monstre incontrôlable dont la force pure est même supérieure à celle de Hulk. Devenu fou, il s'est transformé en plein coeur de New York. Pour sauver la ville de la destruction totale, Bruce Banner va devoir faire appel au monstre qui sommeille en lui...
Adaptations des : Marvel Comics [fr.wikipedia.org] 1939
Marvel Cinematic Universe
2003 : Hulk + Bonus
Phase I
2008 : Iron Man + Bonus, The Incredible Hulk
2010 : Iron Man 2
2011 : Thor + Bonus, Captain America First Avenger + Bonus
2012 : Avengers
Phase II
2013 : Iron Man 3 + Bonus, Thor 2 The Dark World + Bonus
2014 : Captain America 2 The Winter Soldier + Bonus, Guardians of the Galaxy + Bonus
2015 : Avengers 2 Age of Ultron + Bonus, Ant-Man + Bonus
Phase III
2016 : Captain America 3 Civil War + Bonus, Doctor Strange
2017 : Guardians of the Galaxy 2 + Bonus, Spider-Man 1 Homecoming + Bonus, Thor 3 Ragnarok + Bonus
2018 : Black Panther + Bonus, Avengers 3 Infinity War + Bonus, Ant-Man 2 and the Wasp + Bonus
2019 : Captain Marvel + Bonus, Avengers 4 Endgame + Bonus, Spider-Man 2 Far From Home
Phase IV
2021 : Black Widow + Bonus, Shang-Chi and the Legend of the Ten Rings + Bonus, Eternals + Bonus, Spider-Man : No Way Home + Bonus
5jDyEAwM_o.gif
If you enjoy and wish to support, please stay in seeding
Technical Details
¯¯¯¯¯¯¯¯¯¯¯¯¯¯¯¯¯¯¯¯¯¯¯¯¯¯¯¯¯¯¯¯¯¯¯¯¯¯¯¯¯¯¯¯¯¯¯¯¯¯¯¯¯¯¯¯¯¯¯¯¯¯¯¯¯¯¯¯¯¯¯¯¯¯¯¯¯¯¯¯¯¯¯¯¯¯¯¯¯¯¯¯¯¯¯¯¯¯¯¯
AJT0u8LS_o.png [fr.wikipedia.org] G50yLWYj_o.png [fr.wikipedia.org] ccriKpkC_o.png [fr.wikipedia.org] fcIGykaW_o.png [fr.wikipedia.org] vkgGBxUu_o.png [fr.wikipedia.org]
Media
Matroska 3,83Gio 1h52mn 4877Kbps
Video
HEVC/H265 [fr.wikipedia.org] 1920x816 @23.976 [email protected]@Main 10bits 3500Kbps VerySlow qp24,94
Audio
o7YNGqxs_o.png [fr.wikipedia.org] zkFWwOXm_o.png True French 5.1 448Kbps 48KHz 16bits
F1UJN91R_o.png [fr.wikipedia.org] zkFWwOXm_o.png Quebec French 5.1 448Kbps 48KHz 16bits (saturation)
ovX4oFBe_o.png [fr.wikipedia.org] zkFWwOXm_o.png English (OV) 5.1 448Kbps 48KHz 16bits
Subtitles
o7YNGqxs_o.png [fr.wikipedia.org] True French forced SRT
o7YNGqxs_o.png [fr.wikipedia.org] True French full SRT
o7YNGqxs_o.png [fr.wikipedia.org] True French forced PGS
o7YNGqxs_o.png [fr.wikipedia.org] True French full PGS
F1UJN91R_o.png [fr.wikipedia.org] Quebec French forced PGS
F1UJN91R_o.png [fr.wikipedia.org] Quebec French full PGS
ovX4oFBe_o.png [fr.wikipedia.org] English full PGS
ovX4oFBe_o.png [fr.wikipedia.org] IikNajlM_o.png [fr.wikipedia.org] English full SDH PGS
Chapters
International, o7YNGqxs_o.png [fr.wikipedia.org] True French, ovX4oFBe_o.png [fr.wikipedia.org] English
Screenshot
WBRFzZ43_t.png [images2.imgbox.com] IkvWLHLB_t.png [images2.imgbox.com] fYe0kBiJ_t.png [images2.imgbox.com] u1kSuHXF_t.png [images2.imgbox.com]

NY7GfLFt_t.png [images2.imgbox.com] 0kxY6J4j_t.png [images2.imgbox.com] UicJF7VX_t.png [images2.imgbox.com] 3KRMx7Fy_t.png [images2.imgbox.com]

xGkC5Dg7_t.png [images2.imgbox.com] UEHM7xDI_t.png [images2.imgbox.com] QChXT3rY_t.png [images2.imgbox.com] dThqb1wj_t.png [images2.imgbox.com]

Origin
Bluray : Video AVC 1080p 17920Kbps, VFF 5.1 DTS-HDMA 4633Kbps, ENG 5.1 DTS XBR 2304Kbps, VFQ 5.1 AC3 448Kbps (Saturation)
NFO
¯¯¯¯¯¯¯¯¯¯¯¯¯¯¯¯¯¯¯¯¯¯¯¯¯¯¯¯¯¯¯¯¯¯¯¯¯¯¯¯¯¯¯¯¯¯¯¯¯¯¯¯¯¯¯¯¯¯¯¯¯¯¯¯¯¯¯¯¯¯¯¯¯¯¯¯¯¯¯¯¯¯¯¯¯¯¯¯¯¯¯¯¯¯¯¯¯¯¯¯

General
Complete name : Hulk 2 2008 vA BR EAC3 VFF VFQ ENG 1080p x265 10Bits T0M.mkv
Format : Matroska
Format version : Version 4
File size : 3.83 GiB
Duration : 1 h 52 min
Overall bit rate : 4 877 kb/s
Movie name : L'incroyable Hulk (The Incredible Hulk) 2008 de Louis Leterrier avec Edward Norton, Liv Tyler, Tim Roth, William Hurt, Tim Blake Nelson, Ty Burrell, Christina Cabot. Tout public (allocine=114820,imdb=tt0800080) T0M
Encoded date : UTC 2019-06-10 12:10:55
Writing application : mkvmerge v33.1.0 ('Primrose') 64-bit
Writing library : libebml v1.3.7 + libmatroska v1.5.0
Cover : Yes
Attachments : Cover.jpg

Video
ID : 1
Format : HEVC
Format/Info : High Efficiency Video Coding
Format profile : Main [email protected]@Main
Codec ID : V_MPEGH/ISO/HEVC
Duration : 1 h 52 min
Bit rate : 3 500 kb/s
Width : 1 920 pixels
Height : 816 pixels
Display aspect ratio : 2.35:1
Frame rate mode : Constant
Frame rate : 23.976 (24000/1001) FPS
Color space : YUV
Chroma subsampling : 4:2:0
Bit depth : 10 bits
Bits/(Pixel*Frame) : 0.093
Stream size : 2.75 GiB (72%)
Title : Video HEVC 1920x816 @23.976 x265 [email protected]@Main 10bits 3500kbps 2pass veryslow 2037mn
Writing library : x265 2.9:[Windows][GCC 8.2.0][64 bit] 10bit
Encoding settings : cpuid=1111039 / frame-threads=3 / numa-pools=8 / wpp / no-pmode / no-pme / no-psnr / no-ssim / log-level=2 / input-csp=1 / input-res=1920x816 / interlace=0 / total-frames=0 / level-idc=0 / high-tier=1 / uhd-bd=0 / ref=5 / no-allow-non-conformance / no-repeat-headers / annexb / no-aud / no-hrd / info / hash=0 / no-temporal-layers / open-gop / min-keyint=24 / keyint=240 / gop-lookahead=0 / bframes=8 / b-adapt=2 / b-pyramid / bframe-bias=0 / rc-lookahead=120 / lookahead-slices=0 / scenecut=40 / radl=0 / no-intra-refresh / ctu=64 / min-cu-size=8 / rect / amp / max-tu-size=32 / tu-inter-depth=3 / tu-intra-depth=3 / limit-tu=4 / rdoq-level=2 / dynamic-rd=0.00 / no-ssim-rd / signhide / no-tskip / nr-intra=0 / nr-inter=0 / no-constrained-intra / strong-intra-smoothing / max-merge=4 / limit-refs=1 / limit-modes / me=3 / subme=4 / merange=57 / temporal-mvp / weightp / weightb / no-analyze-src-pics / deblock=0:0 / sao / no-sao-non-deblock / rd=6 / no-early-skip / rskip / no-fast-intra / no-tskip-fast / no-cu-lossless / b-intra / no-splitrd-skip / rdpenalty=0 / psy-rd=2.00 / psy-rdoq=1.00 / no-rd-refine / no-lossless / cbqpoffs=0 / crqpoffs=0 / rc=abr / bitrate=3500 / qcomp=0.60 / qpstep=4 / stats-write=0 / stats-Read=2 / cplxblur=20.0 / qblur=0.5 / ipratio=1.40 / pbratio=1.30 / aq-mode=1 / aq-strength=1.00 / cutree / zone-count=0 / no-strict-cbr / qg-size=32 / no-rc-grain / qpmax=69 / qpmin=0 / no-const-vbv / sar=1 / overscan=0 / videoformat=5 / range=0 / colorprim=1 / transfer=1 / colormatrix=1 / chromaloc=0 / display-window=0 / max-cll=0,0 / min-luma=0 / max-luma=1023 / log2-max-poc-lsb=8 / vui-timing-info / vui-hrd-info / slices=1 / no-opt-qp-pps / no-opt-ref-list-length-pps / no-multi-pass-opt-rps / scenecut-bias=0.05 / no-opt-cu-delta-qp / no-aq-motion / no-hdr / no-hdr-opt / no-dhdr10-opt / no-idr-recovery-sei / analysis-reuse-level=5 / scale-factor=0 / refine-intra=0 / refine-inter=0 / refine-mv=0 / no-limit-sao / ctu-info=0 / no-lowpass-dct / refine-mv-type=0 / copy-pic=1 / max-ausize-factor=1.0 / no-dynamic-refine / no-single-sei
Default : Yes
Forced : No
Color range : Limited
Color primaries : BT.709
Transfer characteristics : BT.709
Matrix coefficients : BT.709

Audio #1
ID : 2
Format : E-AC-3
Format/Info : Enhanced AC-3
Commercial name : Dolby Digital Plus
Codec ID : A_EAC3
Duration : 1 h 52 min
Bit rate mode : Constant
Bit rate : 448 kb/s
Channel(s) : 6 channels
Channel layout : L R C LFE Ls Rs
Sampling rate : 48.0 kHz
Frame rate : 31.250 FPS (1536 SPF)
Compression mode : Lossy
Stream size : 360 MiB (9%)
Title : Français 5.1 EAC3 448kbps 48khz 16bits
Language : French
Service kind : Complete Main
Default : Yes
Forced : No

Audio #2
ID : 3
Format : AC-3
Format/Info : Audio Coding 3
Commercial name : Dolby Digital
Codec ID : A_AC3
Duration : 1 h 52 min
Bit rate mode : Constant
Bit rate : 448 kb/s
Channel(s) : 6 channels
Channel layout : L R C LFE Ls Rs
Sampling rate : 48.0 kHz
Frame rate : 31.250 FPS (1536 SPF)
Bit depth : 16 bits
Compression mode : Lossy
Stream size : 360 MiB (9%)
Title : Québécois 5.1 AC3 448kbps 48khz 16bits (saturation)
Language : French
Service kind : Complete Main
Default : No
Forced : No

Audio #3
ID : 4
Format : E-AC-3
Format/Info : Enhanced AC-3
Commercial name : Dolby Digital Plus
Codec ID : A_EAC3
Duration : 1 h 52 min
Bit rate mode : Constant
Bit rate : 448 kb/s
Channel(s) : 6 channels
Channel layout : L R C LFE Ls Rs
Sampling rate : 48.0 kHz
Frame rate : 31.250 FPS (1536 SPF)
Compression mode : Lossy
Stream size : 360 MiB (9%)
Title : English 5.1 EAC3 448kbps 48khz 16bits
Language : English
Service kind : Complete Main
Default : No
Forced : No

Text #1
ID : 5
Format : UTF-8
Codec ID : S_TEXT/UTF8
Codec ID/Info : UTF-8 Plain Text
Duration : 1 h 52 min
Bit rate : 3 b/s
Count of elements : 115
Stream size : 3.11 KiB (0%)
Title : Français forcé (Passages)
Language : French
Default : Yes
Forced : Yes

Text #2
ID : 6
Format : UTF-8
Codec ID : S_TEXT/UTF8
Codec ID/Info : UTF-8 Plain Text
Duration : 1 h 52 min
Bit rate : 24 b/s
Count of elements : 712
Stream size : 20.0 KiB (0%)
Title : Français complet (Tous le film)
Language : French
Default : No
Forced : No

Text #3
ID : 7
Format : PGS
Muxing mode : zlib
Codec ID : S_HDMV/PGS
Codec ID/Info : Picture based subtitle format used on BDs/HD-DVDs
Duration : 35 min 28 s
Bit rate : 3 487 b/s
Count of elements : 142
Stream size : 906 KiB (0%)
Title : Français forcé (Passages) PGS
Language : French
Default : No
Forced : Yes

Text #4
ID : 8
Format : PGS
Muxing mode : zlib
Codec ID : S_HDMV/PGS
Codec ID/Info : Picture based subtitle format used on BDs/HD-DVDs
Duration : 1 h 48 min
Bit rate : 14.3 kb/s
Count of elements : 1342
Stream size : 11.0 MiB (0%)
Title : Français complet (Tous le film) PGS
Language : French
Default : No
Forced : No

Text #5
ID : 9
Format : PGS
Muxing mode : zlib
Codec ID : S_HDMV/PGS
Codec ID/Info : Picture based subtitle format used on BDs/HD-DVDs
Duration : 1 h 42 min
Bit rate : 2 439 b/s
Count of elements : 200
Stream size : 1.79 MiB (0%)
Title : Québécois forcé (Passages) PGS
Language : French
Default : No
Forced : Yes

Text #6
ID : 10
Format : PGS
Muxing mode : zlib
Codec ID : S_HDMV/PGS
Codec ID/Info : Picture based subtitle format used on BDs/HD-DVDs
Duration : 1 h 43 min
Bit rate : 19.4 kb/s
Count of elements : 1588
Stream size : 14.3 MiB (0%)
Title : Québécois complet (Tous le film) PGS
Language : French
Default : No
Forced : No

Text #7
ID : 11
Format : PGS
Muxing mode : zlib
Codec ID : S_HDMV/PGS
Codec ID/Info : Picture based subtitle format used on BDs/HD-DVDs
Duration : 1 h 41 min
Bit rate : 13.5 kb/s
Count of elements : 1340
Stream size : 9.82 MiB (0%)
Title : English full (All the movie) PGS
Language : English
Default : No
Forced : No

Text #8
ID : 12
Format : PGS
Muxing mode : zlib
Codec ID : S_HDMV/PGS
Codec ID/Info : Picture based subtitle format used on BDs/HD-DVDs
Duration : 1 h 44 min
Bit rate : 20.5 kb/s
Count of elements : 1764
Stream size : 15.3 MiB (0%)
Title : English full SDH PGS
Language : English
Default : No
Forced : No

Menu
00:00:00.000 : :01 - 00:00:00 - fr:Self contrôle - en:Self-Control (Main Titles)
00:05:56.800 : :02 - 00:05:56 - fr:En quête d'une fleurs - en:Chasing Flowers
00:12:59.473 : :03 - 00:12:59 - fr:Intoxication Gamma - en:Gamma Poisoning
00:16:17.921 : :04 - 00:16:17 - fr:En mouvement - en:On the Move
00:21:24.185 : :05 - 00:21:24 - fr:Cible acquise - en:Target Acquired
00:26:34.954 : :06 - 00:26:34 - fr:Retour au pays - en:Going Home
00:30:50.042 : :07 - 00:30:50 - fr:Super soldat - en:Super Soldier
00:34:18.709 : :08 - 00:34:18 - fr:Données manquantes - en:Missing Data
00:40:29.329 : :09 - 00:40:29 - fr:Retrouvaille - en:Reunion
00:47:40.468 : :10 - 00:47:40 - fr:Piégé - en:Locked In
00:56:04.347 : :11 - 00:56:04 - fr:C'est tout ce que tu as ? - en:Is That All You Got ?
01:02:34.612 : :12 - 01:02:34 - fr:Trop d'excitation - en:Too Much Excitement
01:08:03.941 : :13 - 01:08:03 - fr:Il est temps de se rencontrer - en:Time to Meet
01:12:28.079 : :14 - 01:12:28 - fr:Gestion de la colère - en:Anger Management
01:20:00.239 : :15 - 01:20:00 - fr:Sujets de test - en:Test Subjects
01:24:10.197 : :16 - 01:24:10 - fr:J'en veux plus - en:I Want More
01:30:34.707 : :17 - 01:30:34 - fr:Ça doit être moi - en:It Has To Be Me
01:37:11.144 : :18 - 01:37:11 - fr:Puissance - en:Power
01:42:48.273 : :19 - 01:42:48 - fr:Sans incident - en:Without Incident
01:45:42.322 : :20 - 01:45:42 - fr:Générique - en:End Titles


Facebook Twitter Digg Reddit LinkedIn StumbleUpon Email
Show Demonoid some love with BitCoin: 1DNoidyJgB159bLJT5hDnCkZ4uQrhkfBVk How to get BitCoins?
Peers: 3 seeders, 0 leechers, 55 total - Updated: 221 hours 11 minutes 34 seconds ago
Size: 3.83 GB  

Sponsored links
Related torrents
Torrents you may also like:
Download this torrent
Extra information
Tracker: udp://tracker.opentrackr.org:1337/announce
Torrent hash: 433E9DF3 D77DE328 E98B5D8E 0259B0FA D6AAC709
Files described inside the torrent: 1 [ Click here to show the full list ]
Comments
No comments posted yet

Disclaimer: None of the files shown here are actually hosted or transmitted by this server. The links are provided solely by this site's users. The site moderation is also a service provided by the site's users. The administrator of this site (demonoid.is) cannot be held responsible for what its users post, or any other actions of its users. You may not use this site to distribute or download any material when you do not have the legal rights to do so. It is your own responsibility to adhere to these terms.

By using this site you indicate your agreement to our terms and conditions
   
Link to us | Contact us | API | Feeds/RSS | DMCA
This site and the Demonoid logo are Copyright © Demonoid. All rights reserved.

Show Demonoid some love with 1DNoidyJgB159bLJT5hDnCkZ4uQrhkfBVk