User log in
User registration
Registrations are open
Click here to register
Email: forgotten email?
Password: lost pass?
  Resend activation email
Protect your privacy! Use a VPN When Downloading Torrents
Your IP Address is . Location is .
Your Internet Provider is tracking your torrent activity! Hide your IP ADDRESS with a VPN!
We strongly recommend using NORD VPN to anonymize your torrenting.
Also, while you are using NORD you get No Ads for Demonoid members Get VPN Now!
Details for Alien 1979 Director's Cut Remastered BR EAC3 VFF ENG 1080p x265 10Bits T0M (Alien le huitième passager,L'Étranger le Huitième Passager,Alien 1)
Created by Ratio: 1.00T0M 1 year ago[ Add to bookmark ]
Movies : Sci-Fi : HEVC / x265 : French

______________________________________________________________________________________________________________
Alien 1979
Bluray · 1080p x265 10bits · DD+ 5.1 VFF ENG · Director's Cut
¯¯¯¯¯¯¯¯¯¯¯¯¯¯¯¯¯¯¯¯¯¯¯¯¯¯¯¯¯¯¯¯¯¯¯¯¯¯¯¯¯¯¯¯¯¯¯¯¯¯¯¯¯¯¯¯¯¯¯¯¯¯¯¯¯¯¯¯¯¯¯¯¯¯¯¯¯¯¯¯



Year : 1979
Country : United States, United Kingdom
Version : Director's Cut 2003 Remastered 2010
French title : Alien le huitième passager
Original title : Alien
Quebec title : L'Étranger : Le Huitième Passager
Director : Ridley Scott
Music from : Jerry Goldsmith
Actors : Tom Skerritt, Sigourney Weaver, Veronica Cartwright, Harry Dean Stanton, John Hurt, Ian Holm, Yaphet Kotto
Genre : Sci-Fi, Horror, Thriller, Drama
Certificate :   Not recommended for children under 12 years old
Budget : 11 000 000 $ · Recipe : 102 944 891 $ · ratio : 936 %
Link : Allociné 4,3/5 ·  IMDB 8,5/10 ·  TMDB 80% ·  SensCritique 8,1/10 ·  Wiki ·  Bande Annonce

French Plot
Le vaisseau commercial Nostromo et son équipage, sept hommes et femmes, rentrent sur Terre avec une importante cargaison de minerai. La réception d'un signal étrange interrompe le voyage, les forçant a explorer une planète déserte. L'officier Kane se fait agresser par une forme de vie inconnue qui étouffe son visage...
D'après une histoire de : Dan O'Bannon et Ronald Shusett



Technical Details
¯¯¯¯¯¯¯¯¯¯¯¯¯¯¯¯¯¯¯¯¯¯¯¯¯¯¯¯¯¯¯¯¯¯¯¯¯¯¯¯¯¯¯¯¯¯¯¯¯¯¯¯¯¯¯¯¯¯¯¯¯¯¯¯¯¯¯¯¯¯¯¯¯¯¯¯¯¯¯¯¯¯¯¯¯¯¯¯¯¯¯¯¯¯¯¯¯¯¯¯
     
Media
Matroska 3,97Gio 1h55mn 4904Kbps
Video
HEVC/H265 1920x818 @23.976 [email protected]@Main 10bits 3651Kbps VerySlow
Audio
    True French 5.1 EAC3 448Kbps 48KHz 16bits
    English 5.1 EAC3 448Kbps 48KHz 16bits
    English Commentary by Sigourney Weaver and Ridley Scott 2.0 EAC3 128Kbps 48KHz 16bits
    English Commentary by Ridley Scott 2.0 EAC3 128Kbps 48KHz 16bits
Subtitles
  True French forced SRT
  True French full SRT
  True French full PGS
  True French Commentary by Sigourney Weaver and Ridley Scott PGS
  True French Commentary by Ridley Scott PGS
    English full SDH PGS
  English Commentary by Sigourney Weaver and Ridley Scott PGS
  English Commentary by Ridley Scott PGS
Chapters
International,  True French,  English
Screenshot
     

NFO
¯¯¯¯¯¯¯¯¯¯¯¯¯¯¯¯¯¯¯¯¯¯¯¯¯¯¯¯¯¯¯¯¯¯¯¯¯¯¯¯¯¯¯¯¯¯¯¯¯¯¯¯¯¯¯¯¯¯¯¯¯¯¯¯¯¯¯¯¯¯¯¯¯¯¯¯¯¯¯¯¯¯¯¯¯¯¯¯¯¯¯¯¯¯¯¯¯¯¯¯

General
Format                                  : Matroska
Format version                          : Version 4
File size                                : 3.97 GiB
Duration                                : 1 h 55 min
Overall bit rate                        : 4 904 kb/s
Movie name                              : Alien le huitième passager (Alien) 1979 Director's Cut Remastered de Ridley Scott avec Tom Skerritt, Sigourney Weaver, Veronica Cartwright, Harry Dean Stanton, John Hurt, Ian Holm, Yaphet Kotto. -12 ans (allocine=62,imdb=tt007874 T0M
Encoded date                            : UTC 2018-11-13 01:04:45
Writing application                      : mkvmerge v8.0.0 ('Til The Day That I Die') 64bit
Writing library                          : libebml v1.3.1 + libmatroska v1.4.2
Cover                                    : Yes
Attachments                              : Cover.jpg

Video
ID                                      : 1
Format                                  : HEVC
Format/Info                              : High Efficiency Video Coding
Format profile                          : Main [email protected]@Main
Codec ID                                : V_MPEGH/ISO/HEVC
Duration                                : 1 h 55 min
Bit rate                                : 3 651 kb/s
Width                                    : 1 920 pixels
Height                                  : 818 pixels
Display aspect ratio                    : 2.35:1
Frame rate mode                          : Constant
Frame rate                              : 23.976 (24000/1001) FPS
Color space                              : YUV
Chroma subsampling                      : 4:2:0
Bit depth                                : 10 bits
Bits/(Pixel*Frame)                      : 0.097
Stream size                              : 2.95 GiB (74%)
Title                                    : Video HEVC 1920x818 @23.976 x265 [email protected]@Main 10bits 3650kbps 2pass veryslow 1906mn
Writing library                          : x265 2.6:[Windows][GCC 7.3.0][64 bit] 10bit
Encoding settings                        : cpuid=1173503 / frame-threads=3 / numa-pools=8 / wpp / no-pmode / no-pme / no-psnr / no-ssim / log-level=2 / input-csp=1 / input-res=1920x818 / interlace=0 / total-frames=0 / level-idc=0 / high-tier=1 / uhd-bd=0 / ref=5 / no-allow-non-conformance / no-repeat-headers / annexb / no-aud / no-hrd / info / hash=0 / no-temporal-layers / open-gop / min-keyint=24 / keyint=240 / bframes=8 / b-adapt=2 / b-pyramid / bframe-bias=0 / rc-lookahead=40 / lookahead-slices=0 / scenecut=40 / no-intra-refresh / ctu=64 / min-cu-size=8 / rect / amp / max-tu-size=32 / tu-inter-depth=3 / tu-intra-depth=3 / limit-tu=4 / rdoq-level=2 / dynamic-rd=0.00 / no-ssim-rd / signhide / no-tskip / nr-intra=0 / nr-inter=0 / no-constrained-intra / strong-intra-smoothing / max-merge=4 / limit-refs=1 / limit-modes / me=3 / subme=4 / merange=57 / temporal-mvp / weightp / weightb / no-analyze-src-pics / deblock=0:0 / sao / no-sao-non-deblock / rd=6 / no-early-skip / rskip / no-fast-intra / no-tskip-fast / no-cu-lossless / b-intra / no-splitrd-skip / rdpenalty=0 / psy-rd=2.00 / psy-rdoq=1.00 / no-rd-refine / analysis-reuse-mode=0 / no-lossless / cbqpoffs=0 / crqpoffs=0 / rc=abr / bitrate=3650 / qcomp=0.60 / qpstep=4 / stats-write=0 / stats-Read=2 / cplxblur=20.0 / qblur=0.5 / ipratio=1.40 / pbratio=1.30 / aq-mode=1 / aq-strength=1.00 / cutree / zone-count=0 / no-strict-cbr / qg-size=32 / no-rc-grain / qpmax=69 / qpmin=0 / no-const-vbv / sar=1 / overscan=0 / videoformat=5 / range=0 / colorprim=1 / transfer=1 / colormatrix=1 / chromaloc=0 / display-window=0 / max-cll=0,0 / min-luma=0 / max-luma=1023 / log2-max-poc-lsb=8 / vui-timing-info / vui-hrd-info / slices=1 / no-opt-qp-pps / no-opt-ref-list-length-pps / no-multi-pass-opt-rps / scenecut-bias=0.05 / no-opt-cu-delta-qp / no-aq-motion / no-hdr / no-hdr-opt / no-dhdr10-opt / analysis-reuse-level=5 / scale-factor=0 / refine-intra=0 / refine-inter=0 / refine-mv=0 / no-limit-sao / ctu-info=0 / no-lowpass-dct / refine-mv-type=0 / copy-pic=1
Default                                  : Yes
Forced                                  : No
Color range                              : Limited
Color primaries                          : BT.709
Transfer characteristics                : BT.709
Matrix coefficients                      : BT.709

Audio #1
ID                                      : 2
Format                                  : E-AC-3
Format/Info                              : Enhanced AC-3
Commercial name                          : Dolby Digital Plus
Codec ID                                : A_EAC3
Duration                                : 1 h 55 min
Bit rate mode                            : Constant
Bit rate                                : 448 kb/s
Channel(s)                              : 6 channels
Channel layout                          : L R C LFE Ls Rs
Sampling rate                            : 48.0 kHz
Frame rate                              : 31.250 FPS (1536 SPF)
Compression mode                        : Lossy
Delay relative to video                  : 5 ms
Stream size                              : 371 MiB (9%)
Title                                    : Français 5.1 EAC3 448kbps 48khz 16bits
Language                                : French
Service kind                            : Complete Main
Default                                  : Yes
Forced                                  : No

Audio #2
ID                                      : 3
Format                                  : E-AC-3
Format/Info                              : Enhanced AC-3
Commercial name                          : Dolby Digital Plus
Codec ID                                : A_EAC3
Duration                                : 1 h 55 min
Bit rate mode                            : Constant
Bit rate                                : 448 kb/s
Channel(s)                              : 6 channels
Channel layout                          : L R C LFE Ls Rs
Sampling rate                            : 48.0 kHz
Frame rate                              : 31.250 FPS (1536 SPF)
Compression mode                        : Lossy
Delay relative to video                  : 5 ms
Stream size                              : 371 MiB (9%)
Title                                    : English 5.1 EAC3 448kbps 48khz 16bits
Language                                : English
Service kind                            : Complete Main
Default                                  : No
Forced                                  : No

Audio #3
ID                                      : 4
Format                                  : E-AC-3
Format/Info                              : Enhanced AC-3
Commercial name                          : Dolby Digital Plus
Codec ID                                : A_EAC3
Duration                                : 1 h 55 min
Bit rate mode                            : Constant
Bit rate                                : 128 kb/s
Channel(s)                              : 2 channels
Channel layout                          : L R
Sampling rate                            : 48.0 kHz
Frame rate                              : 31.250 FPS (1536 SPF)
Compression mode                        : Lossy
Delay relative to video                  : 5 ms
Stream size                              : 106 MiB (3%)
Title                                    : English comment by Sigourney Weaver and Ridley Scott 2.0 EAC3 128kbps 48khz 16bits
Language                                : English
Service kind                            : Complete Main
Default                                  : No
Forced                                  : No

Audio #4
ID                                      : 5
Format                                  : E-AC-3
Format/Info                              : Enhanced AC-3
Commercial name                          : Dolby Digital Plus
Codec ID                                : A_EAC3
Duration                                : 1 h 55 min
Bit rate mode                            : Constant
Bit rate                                : 128 kb/s
Channel(s)                              : 2 channels
Channel layout                          : L R
Sampling rate                            : 48.0 kHz
Frame rate                              : 31.250 FPS (1536 SPF)
Compression mode                        : Lossy
Delay relative to video                  : 5 ms
Stream size                              : 106 MiB (3%)
Title                                    : English comment by Ridley Scott 2.0 EAC3 128kbps 48khz 16bits
Language                                : English
Service kind                            : Complete Main
Default                                  : No
Forced                                  : No

Text #1
ID                                      : 6
Format                                  : UTF-8
Codec ID                                : S_TEXT/UTF8
Codec ID/Info                            : UTF-8 Plain Text
Duration                                : 1 h 55 min
Bit rate                                : 1 b/s
Count of elements                        : 25
Stream size                              : 1.05 KiB (0%)
Title                                    : Français forcé (Passages)
Language                                : French
Default                                  : Yes
Forced                                  : Yes

Text #2
ID                                      : 7
Format                                  : UTF-8
Codec ID                                : S_TEXT/UTF8
Codec ID/Info                            : UTF-8 Plain Text
Duration                                : 1 h 55 min
Bit rate                                : 31 b/s
Count of elements                        : 683
Stream size                              : 26.4 KiB (0%)
Title                                    : Français complet (Tous le film)
Language                                : French
Default                                  : No
Forced                                  : No

Text #3
ID                                      : 8
Format                                  : PGS
Muxing mode                              : zlib
Codec ID                                : S_HDMV/PGS
Codec ID/Info                            : Picture based subtitle format used on BDs/HD-DVDs
Duration                                : 1 h 53 min
Bit rate                                : 7 286 b/s
Count of elements                        : 1360
Stream size                              : 5.92 MiB (0%)
Title                                    : Français complet (Tous le film) PGS
Language                                : French
Default                                  : No
Forced                                  : No

Text #4
ID                                      : 9
Format                                  : PGS
Muxing mode                              : zlib
Codec ID                                : S_HDMV/PGS
Codec ID/Info                            : Picture based subtitle format used on BDs/HD-DVDs
Duration                                : 1 h 55 min
Bit rate                                : 24.8 kb/s
Count of elements                        : 3695
Stream size                              : 20.5 MiB (1%)
Title                                    : Français commentaire de Sigourney Weaver et Ridley Scott PGS
Language                                : French
Default                                  : No
Forced                                  : No

Text #5
ID                                      : 10
Format                                  : PGS
Muxing mode                              : zlib
Codec ID                                : S_HDMV/PGS
Codec ID/Info                            : Picture based subtitle format used on BDs/HD-DVDs
Duration                                : 1 h 55 min
Bit rate                                : 8 819 b/s
Count of elements                        : 1532
Stream size                              : 7.28 MiB (0%)
Title                                    : Français commentaire de Ridley Scott PGS
Language                                : French
Default                                  : No
Forced                                  : No

Text #6
ID                                      : 11
Format                                  : PGS
Muxing mode                              : zlib
Codec ID                                : S_HDMV/PGS
Codec ID/Info                            : Picture based subtitle format used on BDs/HD-DVDs
Duration                                : 1 h 53 min
Bit rate                                : 19.3 kb/s
Count of elements                        : 2097
Stream size                              : 15.6 MiB (0%)
Title                                    : English full SDH PGS
Language                                : English
Default                                  : No
Forced                                  : No

Text #7
ID                                      : 12
Format                                  : PGS
Muxing mode                              : zlib
Codec ID                                : S_HDMV/PGS
Codec ID/Info                            : Picture based subtitle format used on BDs/HD-DVDs
Duration                                : 1 h 55 min
Bit rate                                : 28.7 kb/s
Count of elements                        : 3795
Stream size                              : 23.7 MiB (1%)
Title                                    : English comment by Sigourney Weaver and Ridley Scott PGS
Language                                : English
Default                                  : No
Forced                                  : No

Text #8
ID                                      : 13
Format                                  : PGS
Muxing mode                              : zlib
Codec ID                                : S_HDMV/PGS
Codec ID/Info                            : Picture based subtitle format used on BDs/HD-DVDs
Duration                                : 1 h 55 min
Bit rate                                : 9 889 b/s
Count of elements                        : 1582
Stream size                              : 8.17 MiB (0%)
Title                                    : English comment by Ridley Scott PGS
Language                                : English
Default                                  : No
Forced                                  : No

Menu
00:00:00.000                            : :01 - 00:00:00 - fr:Titre - en:Main Titles
00:02:01.121                            : :02 - 00:02:01 - frilote automatique - en:Auto Pilot
00:04:40.154                            : :03 - 00:04:40 - fr:Éveil - en:Awakening
00:07:55.850                            : :04 - 00:07:55 - fr:Interface 2037 - en:Mu-Th-Ur
00:09:10.508                            : :05 - 00:09:10 - fr:Nostromo re-routé - en:Nostromo Re-Routed
00:12:40.426                            : :06 - 00:12:40 - fr:Localiser la source - en:Locating the Source
00:14:16.105                            : :07 - 00:14:16 - fr:Répondre à l'appel - en:Answering the Call
00:20:05.912                            : :08 - 00:20:05 - fristance à pied - en:Walking Distance
00:23:22.651                            : :09 - 00:23:22 - fr:Agir en  aveugle - enroceeding Blindly
00:25:05.253                            : :10 - 00:25:05 - fr:Horizons sombres - enark Horizons
00:27:50.877                            : :11 - 00:27:50 - fr:Un avertissement - en:A Word of Warning
00:31:51.826                            : :12 - 00:31:51 - fr:Kane - en:Kane's Descent
00:35:32.922                            : :13 - 00:35:32 - fr:Tension - en:Surface Tension
00:37:04.347                            : :14 - 00:37:04 - fr:Facehugger - en:Facehugger
00:40:33.889                            : :15 - 00:40:33 - fr:Acide - en:Acid
00:43:26.520                            : :16 - 00:43:26 - frrocédure standard - en:Standard Procedure
00:47:28.303                            : :17 - 00:47:28 - fr:L'invité manquant - en:The Missing Guest
00:50:06.128                            : :18 - 00:50:06 - fr:Il faut y retourner - en:It Has to Go Back
00:51:44.309                            : :19 - 00:51:44 - frécollage - en:Long Journey Ahead
00:54:24.677                            : :20 - 00:54:24 - fr:Le dernier repas - en:The Last Supper
00:59:01.746                            : :21 - 00:59:01 - frartie de chasse - en:On the Hunt
01:00:26.873                            : :22 - 01:00:26 - fr:Rester ensemble - en:Stick Together
01:03:36.312                            : :23 - 01:03:36 - fr:Jonesy - en:Here Jonesy
01:08:18.719                            : :24 - 01:08:18 - fr:Le fils de Kane - en:Kane's Son
01:10:04.950                            : :25 - 01:10:04 - frans les conduits d'air - en:Into the Air Ducts
01:12:52.409                            : :26 - 01:12:52 - fr:La troisième jonction - en:The Third Junction
01:14:33.927                            : :27 - 01:14:33 - fras de sang, pas de Dallas - en:No Blood, No Dallas
01:17:14.713                            : :28 - 01:17:14 - fr:Ordre Spéciale 937 - en:Special Order 937
01:19:02.904                            : :29 - 01:19:02 - fr:Ash attaques - en:Ash Attacks
01:22:34.282                            : :30 - 01:22:34 - frlan d'évacuation - en:Crew Expendable
01:26:39.235                            : :31 - 01:26:39 - frlan d'évacuation - en:Escape Plan
01:28:49.573                            : :32 - 01:28:49 - fr:Minou, minou, minou - en:Kitty, Kitty, Kitty
01:30:48.734                            : :33 - 01:30:48 - fr:Acculé - en:Cornered
01:32:39.762                            : :34 - 01:32:39 - fr:Auto-destruction amorcée - en:Auto-Destruct Initiated
01:34:23.782                            : :35 - 01:34:23 - fritié - en:Mercy
01:37:45.150                            : :36 - 01:37:45 - fr:Échec de contrordre - en:Override Failed
01:39:14.448                            : :37 - 01:39:14 - fr:Évasion solitaire - en:Narscissus Escape
01:43:28.243                            : :38 - 01:43:28 - fr:Les survivants - en:Survivors
01:46:17.954                            : :39 - 01:46:17 - fr:Tu es ma bonne étoile - en:You Are My Lucky Star
01:53:05.611                            : :40 - 01:53:05 - fr:Générique - en:End Credits


Facebook Twitter Digg Reddit LinkedIn StumbleUpon Email
Show Demonoid some love with BitCoin: 1DNoidyJgB159bLJT5hDnCkZ4uQrhkfBVk How to get BitCoins?
Peers: 2 seeders, 2 leechers, 257 total - Updated: 1 month ago [ Update now ]
Size: 3.97 GB 

Sponsored links
Related torrents
Torrents you may also like:
Download this torrent
Extra information
Tracker: udp://tracker.opentrackr.org:1337/announce
Torrent hash: 3280BD17 3566042A BFE547D0 41583852 CC53D812
Files described inside the torrent: 1 [ Click here to show the full list ]
Comments
No comments posted yet

Disclaimer: None of the files shown here are actually hosted or transmitted by this server. The links are provided solely by this site's users. The site moderation is also a service provided by the site's users. The administrator of this site (demonoid.is) cannot be held responsible for what its users post, or any other actions of its users. You may not use this site to distribute or download any material when you do not have the legal rights to do so. It is your own responsibility to adhere to these terms.

By using this site you indicate your agreement to our terms and conditions
   
Link to us | Contact us | API | Commemoration | Twitter: @DemonoidBT | Feeds/RSS | DMCA
This site and the Demonoid logo are Copyright © Demonoid. All rights reserved.

Show Demonoid some love with 1DNoidyJgB159bLJT5hDnCkZ4uQrhkfBVk