User log in
User registration
Registrations are open
Click here to register
Email: forgotten email?
Password: lost pass?
  Resend activation email
Protect your privacy! Use a VPN When Downloading Torrents
Your IP Address is . Location is .
Your Internet Provider is tracking your torrent activity! Hide your IP ADDRESS with a VPN!
We strongly recommend using NORD VPN to anonymize your torrenting.
Also, while you are using NORD you get No Ads for Demonoid members Get VPN Now!
Details for Alien Resurrection 1997 Special Edition Remastered BR EAC3 VFF ENG 1080p x265 10Bits T0M (Alien la résurrection,Alien 4)
Created by Ratio: 1.00T0M 1 year ago[ Add to bookmark ]
Movies : Sci-Fi : HEVC / x265 : French

______________________________________________________________________________________________________________
Alien Resurrection 1997
Bluray · 1080p x265 10bits · DD+ 5.1 VFF ENG · Special Edition
¯¯¯¯¯¯¯¯¯¯¯¯¯¯¯¯¯¯¯¯¯¯¯¯¯¯¯¯¯¯¯¯¯¯¯¯¯¯¯¯¯¯¯¯¯¯¯¯¯¯¯¯¯¯¯¯¯¯¯¯¯¯¯¯¯¯¯¯¯¯¯¯¯¯¯¯¯¯¯¯



Year : 1997
Country : United States
Version : Special Edition Remastered 2010
French title : Alien la résurrection
Original title : Alien Resurrection
Director : Jean-Pierre Jeunet
Music from : John Frizzell
Actors : Sigourney Weaver, Winona Ryder, Ron Perlman, Dominique Pinon, Dan Hedaya, Michael Wincott
J. E. Freeman, Brad Dourif, Raymond Cruz, Kim Flowers, Gary Dourdan, Leland Orser
Genre : Sci-Fi, Horror, Action, Thriller
Certificate :   Not recommended for children under 12 years old
Budget : 70 000 000 $ · Recipe : 161 376 068 $ · ratio : 231 %
Link : Allociné 3,4/5 ·  IMDB 6,2/10 ·  TMDB 60% ·  SensCritique 6,3/10 ·  Wiki ·  Bande Annonce

French Plot
Deux cents ans après la mort de l'officier Ripley, une équipe de généticiens ressuscite la jeune femme en croisant son ADN avec celui d'un Alien. Le cauchemar reprend. A bord de la station Auriga, Ripley donne naissance à un fils qui lui est aussitôt enlevé. Prisonnière, elle s'efforce de renouer avec son lointain passé humain. Bientôt un autre vaisseau rejoint l'Auriga. Parmi l'équipage composé de brutes et de mercenaires, Ripley découvre une belle jeune femme, Call, avec laquelle elle ne tarde pas à se lier d'amitié.
D'après les personnages de : Dan O'Bannon et Ronald Shusett



Technical Details
¯¯¯¯¯¯¯¯¯¯¯¯¯¯¯¯¯¯¯¯¯¯¯¯¯¯¯¯¯¯¯¯¯¯¯¯¯¯¯¯¯¯¯¯¯¯¯¯¯¯¯¯¯¯¯¯¯¯¯¯¯¯¯¯¯¯¯¯¯¯¯¯¯¯¯¯¯¯¯¯¯¯¯¯¯¯¯¯¯¯¯¯¯¯¯¯¯¯¯¯
     
Media
Matroska 3,92Gio 1h56mn 4827Kbps
Video
HEVC/H265 1920x820 @23.976 [email protected]@Main 10bits 3921Kbps VerySlow
Audio
    True French 5.1 EAC3 448Kbps 48KHz 16bits
    English 5.1 EAC3 448Kbps 48KHz 16bits
Subtitles
  True French forced SRT
  True French full SRT
  True French forced PGS
  True French full PGS
Chapters
International,  True French,  English
Screenshot
     

NFO
¯¯¯¯¯¯¯¯¯¯¯¯¯¯¯¯¯¯¯¯¯¯¯¯¯¯¯¯¯¯¯¯¯¯¯¯¯¯¯¯¯¯¯¯¯¯¯¯¯¯¯¯¯¯¯¯¯¯¯¯¯¯¯¯¯¯¯¯¯¯¯¯¯¯¯¯¯¯¯¯¯¯¯¯¯¯¯¯¯¯¯¯¯¯¯¯¯¯¯¯

General
Format                                  : Matroska
Format version                          : Version 4
File size                                : 3.92 GiB
Duration                                : 1 h 56 min
Overall bit rate                        : 4 827 kb/s
Movie name                              : Alien la résurrection (Alien Resurrection) 1997 Special Edition Remastered de Jean-Pierre Jeunet avec Sigourney Weaver, Winona Ryder, Ron Perlman, Dominique Pinon, Dan Hedaya, Michael Wincott, J. E. Freeman, Brad Dourif, Raymond Cruz, Kim Flowers, Gary Dourdan, Leland Orser. -12 ans (allocine=9046,imdb=tt0118583) T0M
Encoded date                            : UTC 2018-12-01 07:39:31
Writing application                      : mkvmerge v8.0.0 ('Til The Day That I Die') 64bit
Writing library                          : libebml v1.3.1 + libmatroska v1.4.2
Cover                                    : Yes
Attachments                              : Cover.jpg / Poster.jpg

Video
ID                                      : 1
Format                                  : HEVC
Format/Info                              : High Efficiency Video Coding
Format profile                          : Main [email protected]@Main
Codec ID                                : V_MPEGH/ISO/HEVC
Duration                                : 1 h 56 min
Bit rate                                : 3 921 kb/s
Width                                    : 1 920 pixels
Height                                  : 820 pixels
Display aspect ratio                    : 2.35:1
Frame rate mode                          : Constant
Frame rate                              : 23.976 (24000/1001) FPS
Color space                              : YUV
Chroma subsampling                      : 4:2:0
Bit depth                                : 10 bits
Bits/(Pixel*Frame)                      : 0.104
Stream size                              : 3.18 GiB (81%)
Title                                    : Video HEVC 1920x820 @23.976 x265 [email protected]@Main 10bits 3920kbps 2pass veryslow 2252mn
Writing library                          : x265 2.6:[Windows][GCC 7.3.0][64 bit] 10bit
Encoding settings                        : cpuid=1173503 / frame-threads=3 / numa-pools=8 / wpp / no-pmode / no-pme / no-psnr / no-ssim / log-level=2 / input-csp=1 / input-res=1920x820 / interlace=0 / total-frames=0 / level-idc=0 / high-tier=1 / uhd-bd=0 / ref=5 / no-allow-non-conformance / no-repeat-headers / annexb / no-aud / no-hrd / info / hash=0 / no-temporal-layers / open-gop / min-keyint=24 / keyint=240 / bframes=8 / b-adapt=2 / b-pyramid / bframe-bias=0 / rc-lookahead=40 / lookahead-slices=0 / scenecut=40 / no-intra-refresh / ctu=64 / min-cu-size=8 / rect / amp / max-tu-size=32 / tu-inter-depth=3 / tu-intra-depth=3 / limit-tu=4 / rdoq-level=2 / dynamic-rd=0.00 / no-ssim-rd / signhide / no-tskip / nr-intra=0 / nr-inter=0 / no-constrained-intra / strong-intra-smoothing / max-merge=4 / limit-refs=1 / limit-modes / me=3 / subme=4 / merange=57 / temporal-mvp / weightp / weightb / no-analyze-src-pics / deblock=0:0 / sao / no-sao-non-deblock / rd=6 / no-early-skip / rskip / no-fast-intra / no-tskip-fast / no-cu-lossless / b-intra / no-splitrd-skip / rdpenalty=0 / psy-rd=2.00 / psy-rdoq=1.00 / no-rd-refine / analysis-reuse-mode=0 / no-lossless / cbqpoffs=0 / crqpoffs=0 / rc=abr / bitrate=3920 / qcomp=0.60 / qpstep=4 / stats-write=0 / stats-Read=2 / cplxblur=20.0 / qblur=0.5 / ipratio=1.40 / pbratio=1.30 / aq-mode=1 / aq-strength=1.00 / cutree / zone-count=0 / no-strict-cbr / qg-size=32 / no-rc-grain / qpmax=69 / qpmin=0 / no-const-vbv / sar=1 / overscan=0 / videoformat=5 / range=0 / colorprim=1 / transfer=1 / colormatrix=1 / chromaloc=0 / display-window=0 / max-cll=0,0 / min-luma=0 / max-luma=1023 / log2-max-poc-lsb=8 / vui-timing-info / vui-hrd-info / slices=1 / no-opt-qp-pps / no-opt-ref-list-length-pps / no-multi-pass-opt-rps / scenecut-bias=0.05 / no-opt-cu-delta-qp / no-aq-motion / no-hdr / no-hdr-opt / no-dhdr10-opt / analysis-reuse-level=5 / scale-factor=0 / refine-intra=0 / refine-inter=0 / refine-mv=0 / no-limit-sao / ctu-info=0 / no-lowpass-dct / refine-mv-type=0 / copy-pic=1
Default                                  : Yes
Forced                                  : No
Color range                              : Limited
Color primaries                          : BT.709
Transfer characteristics                : BT.709
Matrix coefficients                      : BT.709

Audio #1
ID                                      : 2
Format                                  : E-AC-3
Format/Info                              : Enhanced AC-3
Commercial name                          : Dolby Digital Plus
Codec ID                                : A_EAC3
Duration                                : 1 h 56 min
Bit rate mode                            : Constant
Bit rate                                : 448 kb/s
Channel(s)                              : 6 channels
Channel layout                          : L R C LFE Ls Rs
Sampling rate                            : 48.0 kHz
Frame rate                              : 31.250 FPS (1536 SPF)
Compression mode                        : Lossy
Delay relative to video                  : 5 ms
Stream size                              : 372 MiB (9%)
Title                                    : Français 5.1 EAC3 448kbps 48khz 16bits
Language                                : French
Service kind                            : Complete Main
Default                                  : Yes
Forced                                  : No

Audio #2
ID                                      : 3
Format                                  : E-AC-3
Format/Info                              : Enhanced AC-3
Commercial name                          : Dolby Digital Plus
Codec ID                                : A_EAC3
Duration                                : 1 h 56 min
Bit rate mode                            : Constant
Bit rate                                : 448 kb/s
Channel(s)                              : 6 channels
Channel layout                          : L R C LFE Ls Rs
Sampling rate                            : 48.0 kHz
Frame rate                              : 31.250 FPS (1536 SPF)
Compression mode                        : Lossy
Delay relative to video                  : 5 ms
Stream size                              : 372 MiB (9%)
Title                                    : English 5.1 EAC3 448kbps 48khz 16bits
Language                                : English
Service kind                            : Complete Main
Default                                  : No
Forced                                  : No

Text #1
ID                                      : 4
Format                                  : UTF-8
Codec ID                                : S_TEXT/UTF8
Codec ID/Info                            : UTF-8 Plain Text
Duration                                : 1 h 56 min
Bit rate                                : 0 b/s
Count of elements                        : 11
Stream size                              : 616 Bytes (0%)
Title                                    : Français forcé (Passages)
Language                                : French
Default                                  : Yes
Forced                                  : Yes

Text #2
ID                                      : 5
Format                                  : UTF-8
Codec ID                                : S_TEXT/UTF8
Codec ID/Info                            : UTF-8 Plain Text
Duration                                : 1 h 56 min
Bit rate                                : 29 b/s
Count of elements                        : 755
Stream size                              : 25.3 KiB (0%)
Title                                    : Français complet (Tous le film)
Language                                : French
Default                                  : No
Forced                                  : No

Text #3
ID                                      : 6
Format                                  : PGS
Muxing mode                              : zlib
Codec ID                                : S_HDMV/PGS
Codec ID/Info                            : Picture based subtitle format used on BDs/HD-DVDs
Duration                                : 1 h 52 min
Bit rate                                : 76 b/s
Count of elements                        : 16
Stream size                              : 63.5 KiB (0%)
Title                                    : Français forcé (Passages) PGS
Language                                : French
Default                                  : No
Forced                                  : No

Text #4
ID                                      : 7
Format                                  : PGS
Muxing mode                              : zlib
Codec ID                                : S_HDMV/PGS
Codec ID/Info                            : Picture based subtitle format used on BDs/HD-DVDs
Duration                                : 1 h 54 min
Bit rate                                : 7 062 b/s
Count of elements                        : 1507
Stream size                              : 5.78 MiB (0%)
Title                                    : Français complet (Tous le film) PGS
Language                                : French
Default                                  : No
Forced                                  : No

Menu
00:00:00.000                            : :01 - 00:00:00 - fr:Titres - en:Main Titles
00:03:27.332                            : :02 - 00:03:27 - fr:USM Auriga - en:USM Auriga
00:04:26.307                            : :03 - 00:04:26 - fr:Né de nouveau - en:Born Again
00:06:30.139                            : :04 - 00:06:30 - fr:Numéro 8 - en:Number 8
00:08:49.278                            : :05 - 00:08:49 - fr:Bénéfice inespéré - en:An Unexpected Benefit
00:12:06.225                            : :06 - 00:12:06 - fr:Souvenirs - en:Memories
00:15:03.527                            : :07 - 00:15:03 - fr:Le Betty - en:The Betty
00:19:25.539                            : :08 - 00:19:25 - fr:La cargaison arrive - en:The Cargo Arrives
00:21:37.838                            : :09 - 00:21:37 - fr:Le deal - en:The Deal
00:24:12.868                            : :10 - 00:24:12 - fr:Les hôtes - en:Hosts
00:26:19.995                            : :11 - 00:26:19 - fr:Un petit tête à tête - en:A Little One-on-One
00:30:08.765                            : :12 - 00:30:08 - fr:La leçon d'aujourd'hui - en:Today's Lesson
00:32:19.562                            : :13 - 00:32:19 - fr:Fouiner - en:Snooping Around
00:37:16.692                            : :14 - 00:37:16 - frris - en:Caught
00:39:26.739                            : :15 - 00:39:26 - fr:L'évasion - en:The Escape
00:42:36.679                            : :16 - 00:42:36 - fr:Évacuation. - en:Evacuation.
00:46:30.662                            : :17 - 00:46:30 - fr:Évacuation incomplète. - en:Evacuation incomplete.
00:49:20.791                            : :18 - 00:49:20 - fr:Le retour de Ripley - en:Ripley Comes Through
00:53:35.378                            : :19 - 00:53:35 - fr:Trouver un moyen de sortir - en:Finding a Way Out
00:57:04.963                            : :20 - 00:57:04 - fr:Un vrai gâchis de munitions - en:A Waste of Ammo
01:03:01.652                            : :21 - 01:03:01 - fr:Il en a un à l'intérieur de lui. - en:He's got one inside of him.
01:07:40.431                            : :22 - 01:07:40 - friège - en:A Trap
01:19:37.147                            : :23 - 01:19:37 - fr:Le secret de Call - en:Call's Secret
01:22:07.297                            : :24 - 01:22:07 - fr:Se connecter à la chapelle - en:Connecting at the Chapel
01:28:21.421                            : :25 - 01:28:21 - frans le nid - en:Into the Nest
01:31:45.916                            : :26 - 01:31:45 - frartager le monstre - en:Sharing the Monster
01:34:15.524                            : :27 - 01:34:15 - fr:Un nouveau bébé - en:A New Baby
01:38:58.390                            : :28 - 01:38:58 - fr:Course vers le Betty - en:Racing to the Betty
01:40:45.539                            : :29 - 01:40:45 - fr:Fermeture de la trappe - en:Closing the Hatch
01:43:49.848                            : :30 - 01:43:49 - fr:Sous pression - en:Under Pressure
01:47:52.299                            : :31 - 01:47:52 - fr:Je suis moi-même une étrangère ici - en:I'm a stranger here myself.
01:49:51.418                            : :32 - 01:49:51 - fr:Générique - en:End Titles


Facebook Twitter Digg Reddit LinkedIn StumbleUpon Email
Show Demonoid some love with BitCoin: 1DNoidyJgB159bLJT5hDnCkZ4uQrhkfBVk How to get BitCoins?
Peers: 2 seeders, 0 leechers, 66 total - Updated: 2 months ago [ Update now ]
Size: 3.92 GB 

Sponsored links
Related torrents
Torrents you may also like:
Download this torrent
Extra information
Tracker: udp://tracker.opentrackr.org:1337/announce
Torrent hash: E13BB897 1416E70B 30D45F19 49990F69 B3370633
Files described inside the torrent: 1 [ Click here to show the full list ]
Comments
No comments posted yet

Disclaimer: None of the files shown here are actually hosted or transmitted by this server. The links are provided solely by this site's users. The site moderation is also a service provided by the site's users. The administrator of this site (demonoid.is) cannot be held responsible for what its users post, or any other actions of its users. You may not use this site to distribute or download any material when you do not have the legal rights to do so. It is your own responsibility to adhere to these terms.

By using this site you indicate your agreement to our terms and conditions
   
Link to us | Contact us | API | Commemoration | Twitter: @DemonoidBT | Feeds/RSS | DMCA
This site and the Demonoid logo are Copyright © Demonoid. All rights reserved.

Show Demonoid some love with 1DNoidyJgB159bLJT5hDnCkZ4uQrhkfBVk