User log in
User registration
Registrations are open
Click here to register
Email: forgotten email?
Password: lost pass?
  Resend activation email
Protect your privacy! Use a VPN When Downloading Torrents
Your IP Address is . Location is .
Your Internet Provider is tracking your torrent activity! Hide your IP ADDRESS with a VPN!
We strongly recommend using NORD VPN to anonymize your torrenting.
Also, while you are using NORD you get No Ads for Demonoid members Get VPN Now!
Details for Alien Covenant 2017 BR EAC3 VFF VFQ ENG 1080p x265 10Bits T0M (Alien 6)
Created by Ratio: 1.00T0M 1 year ago[ Add to bookmark ]
Movies : Sci-Fi : HEVC / x265 : French

______________________________________________________________________________________________________________
Alien Covenant 2017
Bluray · 1080p x265 10bits · DD+ 5.1 VFF VFQ ENG
¯¯¯¯¯¯¯¯¯¯¯¯¯¯¯¯¯¯¯¯¯¯¯¯¯¯¯¯¯¯¯¯¯¯¯¯¯¯¯¯¯¯¯¯¯¯¯¯¯¯¯¯¯¯¯¯¯¯¯¯¯¯¯¯¯¯¯¯¯¯¯¯¯¯¯¯¯¯¯¯



Year : 2017
Country : United States, United Kingdom
French title : Alien Covenant
Original title : Alien Covenant
Director : Ridley Scott
Music from : Jed Kurzel
Actors : Michael Fassbender, Katherine Waterston, Billy Crudup, Danny McBride
Demián Bichir, Carmen Ejogo, Jussie Smollett, Callie Hernandez, Amy Seimetz
Genre : Sci-Fi, Adventure, Thriller
Certificate :   Not recommended for children under 12 years old
Budget : 97 000 000 $ · Recipe : 259 315 139 $ · ratio : 267 %
Link : Allociné 2,9/5 ·  IMDB 6,5/10 ·  TMDB 59% ·  SensCritique 5,2/10 ·  Wiki ·  Bande Annonce

French Plot
Les membres d’équipage du vaisseau Covenant, à destination d’une planète à colonisée, sont détournés par un signale, promesse d'un paradis habitable encore intouché.

Il s’agit en fait d’un monde sombre et dangereux, cachant une menace terrible. Ils vont alors tout tenter pour s’échapper...



Technical Details
¯¯¯¯¯¯¯¯¯¯¯¯¯¯¯¯¯¯¯¯¯¯¯¯¯¯¯¯¯¯¯¯¯¯¯¯¯¯¯¯¯¯¯¯¯¯¯¯¯¯¯¯¯¯¯¯¯¯¯¯¯¯¯¯¯¯¯¯¯¯¯¯¯¯¯¯¯¯¯¯¯¯¯¯¯¯¯¯¯¯¯¯¯¯¯¯¯¯¯¯
     
Media
Matroska 4,37Gio 2h02mn 5127Kbps
Video
HEVC/H265 1920x800 @23.976 [email protected]@Main 10bits 3499Kbps VerySlow
Audio
    True French 5.1 EAC3 448Kbps 48KHz 16bits
    Quebec French 5.1 EAC3 448Kbps 48KHz 16bits
    English 5.1 EAC3 448Kbps 48KHz 16bits
    English Commentary of Ridley Scott 2.0 EAC3 192Kbps 48KHz 16bits
Subtitles
  True French forced SRT
  True French full SRT
  True French full PGS
  True French Commentary by Ridley Scott PGS
  Quebec French full PGS
  Quebec French Commentary by Ridley Scott PGS
  English full PGS
    English full SDH PGS
  English Commentary of Ridley Scott PGS
Chapters
International
Screenshot
     

NFO
¯¯¯¯¯¯¯¯¯¯¯¯¯¯¯¯¯¯¯¯¯¯¯¯¯¯¯¯¯¯¯¯¯¯¯¯¯¯¯¯¯¯¯¯¯¯¯¯¯¯¯¯¯¯¯¯¯¯¯¯¯¯¯¯¯¯¯¯¯¯¯¯¯¯¯¯¯¯¯¯¯¯¯¯¯¯¯¯¯¯¯¯¯¯¯¯¯¯¯¯

General
Format                                  : Matroska
Format version                          : Version 4 / Version 2
File size                                : 4.37 GiB
Duration                                : 2 h 2 min
Overall bit rate                        : 5 127 kb/s
Movie name                              : Alien Covenant 2017 de Ridley Scott avec Michael Fassbender, Katherine Waterston, Billy Crudup, Danny McBride, Demián Bichir, Carmen Ejogo, Jussie Smollett, Callie Hernandez, Amy Seimetz. -12 (allocine=208314,imdb=tt2316204)
Encoded date                            : UTC 2017-09-03 11:36:46
Writing application                      : mkvmerge v8.0.0 ('Til The Day That I Die') 64bit
Writing library                          : libebml v1.3.1 + libmatroska v1.4.2
Cover                                    : Yes
Attachments                              : Cover.jpg / Cover2.jpg / Cover3.jpg / Poster.jpg / Poster2.jpg

Video
ID                                      : 1
Format                                  : HEVC
Format/Info                              : High Efficiency Video Coding
Format profile                          : Main [email protected]@Main
Codec ID                                : V_MPEGH/ISO/HEVC
Duration                                : 2 h 2 min
Bit rate                                : 3 499 kb/s
Width                                    : 1 920 pixels
Height                                  : 800 pixels
Display aspect ratio                    : 2.40:1
Frame rate mode                          : Constant
Frame rate                              : 23.976 (24000/1001) FPS
Color space                              : YUV
Chroma subsampling                      : 4:2:0
Bit depth                                : 10 bits
Bits/(Pixel*Frame)                      : 0.095
Stream size                              : 2.98 GiB (68%)
Title                                    : Video HEVC 1920x800 @23.976 x265 [email protected]@Main 10bits veryslow 1883mn
Writing library                          : x265 1.9:[Windows][GCC 4.9.2][64 bit] 10bit
Encoding settings                        : wpp / ctu=64 / min-cu-size=8 / max-tu-size=32 / tu-intra-depth=3 / tu-inter-depth=3 / me=3 / subme=4 / merange=57 / rect / amp / max-merge=4 / temporal-mvp / no-early-skip / rdpenalty=0 / no-tskip / no-tskip-fast / strong-intra-smoothing / no-lossless / no-cu-lossless / no-constrained-intra / no-fast-intra / open-gop / no-temporal-layers / interlace=0 / keyint=240 / min-keyint=24 / scenecut=40 / rc-lookahead=40 / lookahead-slices=0 / bframes=8 / bframe-bias=0 / b-adapt=2 / ref=5 / limit-refs=1 / limit-modes / weightp / weightb / aq-mode=1 / qg-size=32 / aq-strength=1.00 / cbqpoffs=0 / crqpoffs=0 / rd=6 / psy-rd=2.00 / rdoq-level=2 / psy-rdoq=1.00 / signhide / deblock / sao / no-sao-non-deblock / b-pyramid / cutree / no-intra-refresh / rc=crf / crf=18.8 / qcomp=0.60 / qpmin=0 / qpmax=51 / qpstep=4 / ipratio=1.40 / pbratio=1.30
Default                                  : Yes
Forced                                  : No
Color range                              : Limited
Color primaries                          : BT.709
Transfer characteristics                : BT.709
Matrix coefficients                      : BT.709

Audio #1
ID                                      : 2
Format                                  : E-AC-3
Format/Info                              : Enhanced Audio Coding 3
Format settings, Endianness              : Big
Codec ID                                : A_EAC3
Duration                                : 2 h 2 min
Bit rate mode                            : Constant
Bit rate                                : 448 kb/s
Channel(s)                              : 6 channels
Channel positions                        : Front: L C R, Side: L R, LFE
Sampling rate                            : 48.0 kHz
Frame rate                              : 187.500 FPS (256 spf)
Compression mode                        : Lossy
Delay relative to video                  : -5 ms
Stream size                              : 391 MiB (9%)
Title                                    : Français 5.1 EAC3 448kbps 48khz 16bits
Language                                : French
Service kind                            : Complete Main
Default                                  : Yes
Forced                                  : No

Audio #2
ID                                      : 3
Format                                  : E-AC-3
Format/Info                              : Enhanced Audio Coding 3
Format settings, Endianness              : Big
Codec ID                                : A_EAC3
Duration                                : 2 h 2 min
Bit rate mode                            : Constant
Bit rate                                : 448 kb/s
Channel(s)                              : 6 channels
Channel positions                        : Front: L C R, Side: L R, LFE
Sampling rate                            : 48.0 kHz
Frame rate                              : 187.500 FPS (256 spf)
Compression mode                        : Lossy
Delay relative to video                  : -5 ms
Stream size                              : 391 MiB (9%)
Title                                    : Québécois 5.1 EAC3 448kbps 48khz 16bits
Language                                : French
Service kind                            : Complete Main
Default                                  : No
Forced                                  : No

Audio #3
ID                                      : 4
Format                                  : E-AC-3
Format/Info                              : Enhanced Audio Coding 3
Format settings, Endianness              : Big
Codec ID                                : A_EAC3
Duration                                : 2 h 2 min
Bit rate mode                            : Constant
Bit rate                                : 448 kb/s
Channel(s)                              : 6 channels
Channel positions                        : Front: L C R, Side: L R, LFE
Sampling rate                            : 48.0 kHz
Frame rate                              : 187.500 FPS (256 spf)
Compression mode                        : Lossy
Delay relative to video                  : 22 ms
Stream size                              : 391 MiB (9%)
Title                                    : English 5.1 EAC3 448kbps 48khz 16bits
Language                                : English
Service kind                            : Complete Main
Default                                  : No
Forced                                  : No

Audio #4
ID                                      : 5
Format                                  : E-AC-3
Format/Info                              : Enhanced Audio Coding 3
Format settings, Endianness              : Big
Codec ID                                : A_EAC3
Duration                                : 2 h 2 min
Bit rate mode                            : Constant
Bit rate                                : 192 kb/s
Channel(s)                              : 2 channels
Channel positions                        : Front: L R
Sampling rate                            : 48.0 kHz
Frame rate                              : 187.500 FPS (256 spf)
Compression mode                        : Lossy
Delay relative to video                  : -5 ms
Stream size                              : 168 MiB (4%)
Title                                    : English Comment of Ridley Scott 2.0 EAC3 192kbps 48khz 16bits
Language                                : English
Service kind                            : Complete Main
Default                                  : No
Forced                                  : No

Text #1
ID                                      : 6
Format                                  : UTF-8
Codec ID                                : S_TEXT/UTF8
Codec ID/Info                            : UTF-8 Plain Text
Duration                                : 2 h 1 min
Bit rate                                : 0 b/s
Count of elements                        : 14
Stream size                              : 622 Bytes (0%)
Title                                    : Français forcé (Passages)
Language                                : French
Default                                  : Yes
Forced                                  : Yes

Text #2
ID                                      : 7
Format                                  : UTF-8
Codec ID                                : S_TEXT/UTF8
Codec ID/Info                            : UTF-8 Plain Text
Duration                                : 2 h 1 min
Bit rate                                : 33 b/s
Count of elements                        : 1187
Stream size                              : 30.0 KiB (0%)
Title                                    : Français complet (Tous le film)
Language                                : French
Default                                  : No
Forced                                  : No

Text #3
ID                                      : 8
Format                                  : PGS
Muxing mode                              : zlib
Codec ID                                : S_HDMV/PGS
Codec ID/Info                            : Picture based subtitle format used on BDs/HD-DVDs
Duration                                : 2 h 0 min
Bit rate                                : 6 744 b/s
Count of elements                        : 2366
Stream size                              : 5.82 MiB (0%)
Title                                    : Français complet (Tous le film) PGS
Language                                : French
Default                                  : No
Forced                                  : No

Text #4
ID                                      : 9
Format                                  : PGS
Muxing mode                              : zlib
Codec ID                                : S_HDMV/PGS
Codec ID/Info                            : Picture based subtitle format used on BDs/HD-DVDs
Duration                                : 2 h 1 min
Bit rate                                : 16.4 kb/s
Count of elements                        : 3838
Stream size                              : 14.3 MiB (0%)
Title                                    : Français Commentaire de Ridley Scott PGS
Language                                : French
Default                                  : No
Forced                                  : No

Text #5
ID                                      : 10
Format                                  : PGS
Muxing mode                              : zlib
Codec ID                                : S_HDMV/PGS
Codec ID/Info                            : Picture based subtitle format used on BDs/HD-DVDs
Duration                                : 2 h 0 min
Bit rate                                : 8 315 b/s
Count of elements                        : 2680
Stream size                              : 7.17 MiB (0%)
Title                                    : Québécois complet (Tous le film) PGS
Language                                : French
Default                                  : No
Forced                                  : No

Text #6
ID                                      : 11
Format                                  : PGS
Muxing mode                              : zlib
Codec ID                                : S_HDMV/PGS
Codec ID/Info                            : Picture based subtitle format used on BDs/HD-DVDs
Duration                                : 2 h 1 min
Bit rate                                : 16.5 kb/s
Count of elements                        : 3938
Stream size                              : 14.4 MiB (0%)
Title                                    : Québécois Commentaire de Ridley Scott PGS
Language                                : French
Default                                  : No
Forced                                  : No

Text #7
ID                                      : 12
Format                                  : PGS
Muxing mode                              : zlib
Codec ID                                : S_HDMV/PGS
Codec ID/Info                            : Picture based subtitle format used on BDs/HD-DVDs
Duration                                : 1 h 54 min
Bit rate                                : 8 833 b/s
Count of elements                        : 2658
Stream size                              : 7.21 MiB (0%)
Title                                    : English full (All the movie) PGS
Language                                : English
Default                                  : No
Forced                                  : No

Text #8
ID                                      : 13
Format                                  : PGS
Muxing mode                              : zlib
Codec ID                                : S_HDMV/PGS
Codec ID/Info                            : Picture based subtitle format used on BDs/HD-DVDs
Duration                                : 1 h 54 min
Bit rate                                : 12.0 kb/s
Count of elements                        : 3418
Stream size                              : 9.81 MiB (0%)
Title                                    : English full SDH PGS
Language                                : English
Default                                  : No
Forced                                  : No

Text #9
ID                                      : 14
Format                                  : PGS
Muxing mode                              : zlib
Codec ID                                : S_HDMV/PGS
Codec ID/Info                            : Picture based subtitle format used on BDs/HD-DVDs
Duration                                : 1 h 55 min
Bit rate                                : 20.5 kb/s
Count of elements                        : 4186
Stream size                              : 16.9 MiB (0%)
Title                                    : English Comment of Ridley Scott PGS
Language                                : English
Default                                  : No
Forced                                  : No

Menu
00:00:00.000                            : :01 - 00:00:00
00:04:47.662                            : :02 - 00:04:47
00:13:07.495                            : :03 - 00:13:07
00:18:11.924                            : :04 - 00:18:11
00:22:46.448                            : :05 - 00:22:46
00:27:51.169                            : :06 - 00:27:51
00:33:12.907                            : :07 - 00:33:12
00:37:18.736                            : :08 - 00:37:18
00:42:19.912                            : :09 - 00:42:19
00:47:43.694                            : :10 - 00:47:43
00:52:04.371                            : :11 - 00:52:04
00:55:56.269                            : :12 - 00:55:56
01:00:17.447                            : :13 - 01:00:17
01:06:20.643                            : :14 - 01:06:20
01:11:25.030                            : :15 - 01:11:25
01:16:35.882                            : :16 - 01:16:35
01:21:10.031                            : :17 - 01:21:10
01:28:18.793                            : :18 - 01:28:18
01:31:21.559                            : :19 - 01:31:21
01:34:52.436                            : :20 - 01:34:52
01:39:23.666                            : :21 - 01:39:23
01:43:35.876                            : :22 - 01:43:35
01:50:49.309                            : :23 - 01:50:49
01:55:27.754                            : :24 - 01:55:27


Facebook Twitter Digg Reddit LinkedIn StumbleUpon Email
Show Demonoid some love with BitCoin: 1DNoidyJgB159bLJT5hDnCkZ4uQrhkfBVk How to get BitCoins?
Peers: 0 seeders, 0 leechers, 0 total - Updated: 30 days ago [ Update now ]
Size: 4.37 GB 

Sponsored links
Related torrents
Torrents you may also like:
Download this torrent
Extra information
Tracker: udp://tracker.opentrackr.org:1337/announce
Torrent hash: 481AAF90 15C00DE7 71F8AE62 1EEB06D5 F222CA86
Files described inside the torrent: 1 [ Click here to show the full list ]
Comments
<< Prev      Next >>
| 1 - 1 |
Posted by Ratio: 1.00ChrisPCool 1 year ago [ Complain ] [ Send PM ]
Thank you very much !!!
| 1 - 1 |
<< Prev      Next >>

Disclaimer: None of the files shown here are actually hosted or transmitted by this server. The links are provided solely by this site's users. The site moderation is also a service provided by the site's users. The administrator of this site (demonoid.is) cannot be held responsible for what its users post, or any other actions of its users. You may not use this site to distribute or download any material when you do not have the legal rights to do so. It is your own responsibility to adhere to these terms.

By using this site you indicate your agreement to our terms and conditions
   
Link to us | Contact us | API | Commemoration | Twitter: @DemonoidBT | Feeds/RSS | DMCA
This site and the Demonoid logo are Copyright © Demonoid. All rights reserved.

Show Demonoid some love with 1DNoidyJgB159bLJT5hDnCkZ4uQrhkfBVk