User log in
User registration
Registrations are open
Click here to register
Email: forgotten email?
Password: lost pass?
  Resend activation email
Get VPN Now for FREE! Get VPN Now for FREE! Get VPN Now for FREE! Get VPN Now for FREE! Get VPN Now for FREE! Get VPN Now for FREE! Get VPN Now for FREE! Get VPN Now for FREE! Get VPN Now for FREE! Get VPN Now for FREE! Get VPN Now for FREE! Get VPN Now for FREE! Get VPN Now for FREE! Protect your privacy! Use a VPN When Downloading Torrents
Your IP Address is . Location is .
Your Internet Provider is tracking your torrent activity! Hide your IP ADDRESS with a VPN!
We strongly recommend using Trust.Zone VPN to anonymize your torrenting. It's FREE!
Also, while you are using Trust.Zone VPN you get No Ads for Demonoid members Get VPN Now for FREE!
Details for Judas Priest - Screaming For Vengeance (PBTHAL LP 24-96) [FLAC] vtwin88cube
Created by Ratio: 1.00vtwin88cube 11 months ago
Music : Metal : Lossless
Judas Priest
Screaming For Vengeance (1982)
FLAC LOSSLESS 24bit-96kHz
PBTHAL Vinyl


allmusic.com...

Judas Priest rebounded from the shaky Point of Entry with Screaming for Vengeance, arguably the strongest album of their early-'80s commercial period. Having moved a bit too far into simplistic hard rock, Vengeance found the band refocusing on heavy metal, and achieving a greater balance between commercialism and creativity. The results were catchy and accessible, yet harder-hitting, and without the awkwardly apparent calculation that informed the weakest moments of the album's two predecessors. Ultimately, Screaming for Vengeance hangs together better than even the undeniable landmark British Steel, both thematically and musically.


foobar2000 1.4.3 / Dynamic Range Meter 1.1.1
log date: 2020-10-27 19:10:56

--------------------------------------------------------------------------------
Analyzed: Judas Priest / Screaming For Vengeance
--------------------------------------------------------------------------------

DR         Peak         RMS     Duration Track
--------------------------------------------------------------------------------
DR12      -2.04 dB   -16.83 dB      0:43 01-The Hellion
DR12      -1.60 dB   -15.58 dB      3:40 02-Electric Eye
DR13      -0.99 dB   -15.31 dB      3:10 03-Riding On The Wind
DR13      -0.70 dB   -16.50 dB      3:53 04-Bloodstone
DR12      -1.30 dB   -17.08 dB      3:07 05-(Take These) Chains
DR11      -1.65 dB   -16.54 dB      4:15 06-Pain And Pleasure
DR12      -1.37 dB   -16.12 dB      4:44 07-Screaming For Vengeance
DR13      -0.70 dB   -15.97 dB      5:11 08-You've Got Another Thing Comin'
DR13      -0.93 dB   -17.55 dB      5:22 09-Fever
DR13      -1.46 dB   -16.52 dB      4:51 10-Devil's Child

Number of tracks:  10
Official DR value: DR12

Samplerate:        96000 Hz
Channels:          2
Bits per sample:   24
Bitrate:           3029 kbps
Codec:             FLAC




Support the artists...
buy it if you like it!

Thanks for Seeding!
Cheers!
Facebook Twitter Digg Reddit LinkedIn StumbleUpon Email
Show Demonoid some love with BitCoin: 1DNoidyJgB159bLJT5hDnCkZ4uQrhkfBVk How to get BitCoins?
Peers: 3 seeders, 0 leechers, 28 total - Updated: 5 months ago [ Update now ]
Size: 858.06 MB  

Sponsored links
Related torrents
Torrents you may also like:
Download this torrent
Extra information
Tracker: udp://tracker.openbittorrent.com:80/announce
Torrent hash: 4A98878A 7AC44ECF FA057C5C F62F96A3 66E11865
Files described inside the torrent: 23 [ Click here to show the full list
Comments
No comments posted yet

Disclaimer: None of the files shown here are actually hosted or transmitted by this server. The links are provided solely by this site's users. The site moderation is also a service provided by the site's users. The administrator of this site (demonoid.is) cannot be held responsible for what its users post, or any other actions of its users. You may not use this site to distribute or download any material when you do not have the legal rights to do so. It is your own responsibility to adhere to these terms.

By using this site you indicate your agreement to our terms and conditions
   
Link to us | Contact us | API | Commemoration | Feeds/RSS | DMCA
This site and the Demonoid logo are Copyright © Demonoid. All rights reserved.

Show Demonoid some love with 1DNoidyJgB159bLJT5hDnCkZ4uQrhkfBVk