User log in
User registration
Registrations are closed. If you have an invitation code, click here.
Email: forgotten email?
Password: lost pass?
  Resend activation email
Protect your privacy! Use a VPN When Downloading Torrents
Your IP Address is . Location is .
Your Internet Provider is tracking your torrent activity! Hide your IP ADDRESS with a VPN!
We strongly recommend using VPN to anonymize your torrenting.
Also, while you are using VPN from our offer you get No Ads for Demonoid members! Get VPN Now!
Details for Mohanagar.2021.S01.Complete.Bengali.1080p.Hoichoi.WEBRip.AAC.2.0.ESub.HEVC.x265 ~ Shadow
Created by Ratio: 1.00kayl1337 1 month ago
TV : Crime : HD 1080p / 1080i : Hindi


General
Unique ID                                : 103633466372412951784372712764769404003 (0x4DF714617FEE23EC0BBC8B0A4DF58463)
Complete name                            : Mohanagar.2021.S01.Complete.Bengali.1080p.Hoichoi.WEBRip.AAC.2.0.ESub.HEVC.x265 ~ Shadow\Mohanagar.S01E01.Bengali.1080p.Hoichoi.WEBRip.AAC.2.0.HEVC.x265.ESub ~ Shadow.mkv
Format                                   : Matroska
Format version                           : Version 4
File size                                : 368 MiB
Duration                                 : 28 min 20 s
Overall bit rate                         : 1 814 kb/s
Movie name                               : _[Tasin]_
Encoded date                             : UTC 2021-06-24 18:40:14
Writing application                      : mkvmerge v57.0.0 ('Till The End') 64-bit
Writing library                          : libebml v1.4.2 + libmatroska v1.6.4

Video
ID                                       : 2
Format                                   : HEVC
Format/Info                              : High Efficiency Video Coding
Format profile                           : Main [email protected]@Main
Codec ID                                 : V_MPEGH/ISO/HEVC
Duration                                 : 28 min 20 s
Bit rate                                 : 1 651 kb/s
Width                                    : 1 920 pixels
Height                                   : 1 080 pixels
Display aspect ratio                     : 16:9
Frame rate mode                          : Constant
Frame rate                               : 25.000 FPS
Color space                              : YUV
Chroma subsampling                       : 4:2:0
Bit depth                                : 10 bits
Bits/(Pixel*Frame)                       : 0.032
Stream size                              : 335 MiB (91%)
Title                                    : _[Tasin]_
Default                                  : Yes
Forced                                   : No
Color range                              : Limited
Color primaries                          : BT.709
Transfer characteristics                 : BT.709
Matrix coefficients                      : BT.709

Audio
ID                                       : 3
Format                                   : AAC LC
Format/Info                              : Advanced Audio Codec Low Complexity
Codec ID                                 : A_AAC-2
Duration                                 : 28 min 20 s
Bit rate                                 : 160 kb/s
Channel(s)                               : 2 channels
Channel layout                           : L R
Sampling rate                            : 48.0 kHz
Frame rate                               : 46.875 FPS (1024 SPF)
Compression mode                         : Lossy
Stream size                              : 32.4 MiB (9%)
Title                                    : _[Tasin]_
Language                                 : Bengali
Default                                  : Yes
Forced                                   : No

Text
ID                                       : 1
Format                                   : UTF-8
Codec ID                                 : S_TEXT/UTF8
Codec ID/Info                            : UTF-8 Plain Text
Duration                                 : 27 min 39 s
Bit rate                                 : 62 b/s
Count of elements                        : 482
Stream size                              : 12.7 KiB (0%)
Title                                    : _[Tasin]_
Language                                 : English
Default                                  : Yes
Forced                                   : Yes                            :





Facebook Twitter Digg Reddit LinkedIn StumbleUpon Email
Show Demonoid some love with BitCoin: 1DNoidyJgB159bLJT5hDnCkZ4uQrhkfBVk How to get BitCoins?
Peers: 840 seeders, 29 leechers, 7,789 total - Updated: 20 days ago [ Update now ]
Size: 2.35 GB  

Sponsored links
Related torrents
Torrents you may also like:
Download this torrent
Extra information
Tracker: udp://open.stealth.si:80/announce
Torrent hash: 0845EC2B D665E616 7D0A601D 775BB622 9BC79D4A
Files described inside the torrent: 8 [ Click here to show the full list
Comments
No comments posted yet

Disclaimer: None of the files shown here are actually hosted or transmitted by this server. The links are provided solely by this site's users. The site moderation is also a service provided by the site's users. The administrator of this site (demonoid.is) cannot be held responsible for what its users post, or any other actions of its users. You may not use this site to distribute or download any material when you do not have the legal rights to do so. It is your own responsibility to adhere to these terms.

By using this site you indicate your agreement to our terms and conditions
   
Link to us | Contact us | API | Commemoration | Feeds/RSS | DMCA
This site and the Demonoid logo are Copyright © Demonoid. All rights reserved.

Show Demonoid some love with 1DNoidyJgB159bLJT5hDnCkZ4uQrhkfBVk