User log in
User registration
Registrations are open
Click here to register
Email: forgotten email?
Password: lost pass?
  Resend activation email
Get VPN Now for FREE! Protect your privacy! Use a VPN When Downloading Torrents
Your IP Address is . Location is .
Your Internet Provider is tracking your torrent activity! Hide your IP ADDRESS with a VPN!
We strongly recommend using Trust Zone VPN to anonymize your torrenting. It's FREE!
Also, while you are using Ti07d15crussa6d0a2t z6d52ceZone VPN you get No Ads on Demonoid site Get sa6d0a2VPN Nsa6d0a2ow!
Details for Scorpions - Best Of 1979-1990 (PBTHAL 24-96) [FLAC] vtwin88cube
Created by Ratio: 1.00vtwin88cube 11 months ago 0   0
Music : Rock : Lossless
Scorpions
Best Of 1979-1990
FLAC LOSSLESS 24bit-96kHz
PBTHAL VINYL TRACKS


allmusic.com...

Known best for their 1984 anthem "Rock You Like a Hurricane" and the 1990 ballad "Wind of Change," German rockers Scorpions have sold over 22 million records, making them one of the most successful rock bands to ever come out of Continental Europe. Formed in 1969 by Rudolf Schenker, the original lineup consisted of rhythm guitarist/vocalist Schenker, lead guitarist Karl-Heinz Follmer, bassist Lothar Heimberg, and drummer Wolfgang Dziony. In 1971, Schenker's younger brother Michael joined the band to play lead guitar and good friend Klaus Meine became the vocalist.


foobar2000 1.4.3 / Dynamic Range Meter 1.1.1
log date: 2021-07-28 21:12:47

--------------------------------------------------------------------------------
Analyzed: Scorpions / Best Of 1979-1990
--------------------------------------------------------------------------------

DR Peak RMS Duration Track
--------------------------------------------------------------------------------
DR12 -3.05 dB -16.74 dB 5:39 01-Loving You Sunday Morning
DR12 -1.37 dB -15.71 dB 3:32 02-Another Piece Of Meat
DR12 -1.87 dB -15.35 dB 4:44 03-Coast To Coast
DR11 -0.70 dB -13.27 dB 4:51 04-Lovedrive
DR13 -0.95 dB -15.78 dB 3:51 05-Make It Real
DR12 -1.64 dB -16.83 dB 5:32 06-The Zoo
DR13 -0.83 dB -14.69 dB 3:49 07-Blackout
DR12 -1.39 dB -15.21 dB 3:47 08-Can't Live Without You
DR13 -1.00 dB -15.81 dB 3:57 09-No One Like You
DR13 -1.00 dB -14.97 dB 4:12 10-Dynamite
DR14 -1.70 dB -17.44 dB 3:55 11-Bad Boys Running Wild
DR12 -1.85 dB -15.84 dB 4:10 12-Big City Nights
DR13 -3.11 dB -18.08 dB 4:12 13-Rock You Like A Hurricane
DR10 -1.00 dB -15.25 dB 6:29 14-Still Loving You
DR13 -2.84 dB -19.01 dB 3:59 15-Passion Rules The Game
DR12 -1.83 dB -16.55 dB 5:24 16-Believe In Love
DR11 -3.26 dB -16.53 dB 4:03 17-Don't Stop At The Top
DR15 -1.65 dB -19.02 dB 3:47 18-Rhythm Of Love
DR13 -0.70 dB -16.17 dB 5:13 19-Wind Of Change
DR12 -1.59 dB -14.84 dB 5:09 20-Restless Nights

Number of tracks: 20
Official DR value: DR12

Samplerate: 96000 Hz
Channels: 2
Bits per sample: 24
Bitrate: 3093 kbps
Codec: FLAC




Not my rip. Any questions about the
equipment used can be found in the
lineage text.


Support the artists!

Sharing since 2010
Thanks for Seeding!
Cheers;)
88
Facebook Twitter Digg Reddit LinkedIn StumbleUpon Email
Show Demonoid some love with BitCoin: 1DNoidyJgB159bLJT5hDnCkZ4uQrhkfBVk How to get BitCoins?
Peers: 7 seeders, 3 leechers, 999 total - Updated: 18 hours 15 minutes 5 seconds ago
Size: 1.96 GB  

Sponsored links
Related torrents
Torrents you may also like:
Download this torrent
Extra information
Tracker: udp://tracker.openbittorrent.com:80/announce
Torrent hash: 064D058E 06C8725B 504C1294 446A62A2 480FE4FD
Files described inside the torrent: 24 [ Click here to show the full list ]
Comments
No comments posted yet

Disclaimer: None of the files shown here are actually hosted or transmitted by this server. The links are provided solely by this site's users. The site moderation is also a service provided by the site's users. The administrator of this site (demonoid.is) cannot be held responsible for what its users post, or any other actions of its users. You may not use this site to distribute or download any material when you do not have the legal rights to do so. It is your own responsibility to adhere to these terms.

By using this site you indicate your agreement to our terms and conditions
   
Link to us | Contact us | API | Feeds/RSS | DMCA
This site and the Demonoid logo are Copyright © Demonoid. All rights reserved.

Show Demonoid some love with 1DNoidyJgB159bLJT5hDnCkZ4uQrhkfBVk