User log in
User registration
Registrations are open
Click here to register
Email: forgotten email?
Password: lost pass?
  Resend activation email
Get VPN Now for FREE! Get VPN Now for FREE! Get VPN Now for FREE! Get VPN Now for FREE! Get VPN Now for FREE! Get VPN Now for FREE! Get VPN Now for FREE! Get VPN Now for FREE! Protect your privacy! Use a VPN When Downloading Torrents
Your IP Address is . Location is .
Your Internet Provider is tracking your torrent activity! Hide your IP ADDRESS with a VPN!
We strongly recommend using Trust.Zone VPN to anonymize your torrenting. It's FREE!
Also, while you are using Trust.Zone VPN you get No Ads for Demonoid members Get VPN Now for FREE!
Details for The Knack - On Stage at World Cafe Live (2007) HEVC 720p EAC3 DD+ 5.1[djdezzie]
Created by Ratio: 1.00djdezzie 1 month ago
Music Videos : Rock : HEVC / x265


Run Time:  57:07
Resolution: 1280x720

While looking for more Live at the World Cafe I came across this. I remember My Sharona but wasn't aware of any live performances Enjoy.

If you like this check out my VA - WFUV City Folk Live - Series Collection thanks.












General
Format                                   : Matroska
Format version                           : Version 2
File size                                : 1.02 GiB
Duration                                 : 57 min 7 s
Overall bit rate                         : 2 544 kb/s
Movie name                               : The Knack - On Stage at World Cafe Live (2007) HEVC 720p.EAC3.DD+ 5.1.mkv
Encoded date                             : UTC 2021-08-20 14:49:40
Writing library                          : libebml v1.3.4 + libmatroska v1.4.5


Video
ID                                       : 1
Format                                   : HEVC
Format/Info                              : High Efficiency Video Coding
Format profile                           : [email protected]@Main
Codec ID                                 : V_MPEGH/ISO/HEVC
Duration                                 : 57 min 6 s
Bit rate                                 : 2 095 kb/s
Width                                    : 1 280 pixels
Height                                   : 720 pixels
Display aspect ratio                     : 16:9
Frame rate mode                          : Constant
Frame rate                               : 29.970 (30000/1001) FPS
Color space                              : YUV
Chroma subsampling                       : 4:2:0
Bit depth                                : 8 bits
Bits/(Pixel*Frame)                       : 0.076
Stream size                              : 856 MiB (82%)
Default                                  : Yes
Forced                                   : No
Color range                              : Limited
Color primaries                          : BT.709
Transfer characteristics                 : BT.709
Matrix coefficients                      : BT.709


Audio

ID                                       : 2
Format                                   : E-AC-3
Format/Info                              : Enhanced AC-3
Commercial name                          : Dolby Digital Plus
Codec ID                                 : A_EAC3
Duration                                 : 57 min 7 s
Bit rate mode                            : Constant
Bit rate                                 : 448 kb/s
Channel(s)                               : 6 channels
Channel layout                           : L R C LFE Ls Rs
Sampling rate                            : 48.0 kHz
Frame rate                               : 31.250 FPS (1536 SPF)
Compression mode                         : Lossy
Stream size                              : 183 MiB (18%)
Service kind                             : Complete Main
Default                                  : Yes
Forced                                   : No
Facebook Twitter Digg Reddit LinkedIn StumbleUpon Email
Show Demonoid some love with BitCoin: 1DNoidyJgB159bLJT5hDnCkZ4uQrhkfBVk How to get BitCoins?
Peers: 3 seeders, 0 leechers, 148 total - Updated: 24 days ago [ Update now ]
Size: 1.02 GB  

Sponsored links
Related torrents
Torrents you may also like:
Download this torrent
Extra information
Tracker: udp://tracker.tiny-vps.com:6969/announce
Torrent hash: 830DD052 47019403 3BDD10FE E72671C4 837B17D6
Files described inside the torrent: 7 [ Click here to show the full list
Comments
<< Prev        Next >>
| 1 - 1 | 1 items total
Posted by Ratio: 1.00mwina 1 month ago [ Complain ] [ Send PM ]
Muchas gracias!!
| 1 - 1 | 1 items total
<< Prev        Next >>

Disclaimer: None of the files shown here are actually hosted or transmitted by this server. The links are provided solely by this site's users. The site moderation is also a service provided by the site's users. The administrator of this site (demonoid.is) cannot be held responsible for what its users post, or any other actions of its users. You may not use this site to distribute or download any material when you do not have the legal rights to do so. It is your own responsibility to adhere to these terms.

By using this site you indicate your agreement to our terms and conditions
   
Link to us | Contact us | API | Commemoration | Feeds/RSS | DMCA
This site and the Demonoid logo are Copyright © Demonoid. All rights reserved.

Show Demonoid some love with 1DNoidyJgB159bLJT5hDnCkZ4uQrhkfBVk