Please help the site by white listing it in your Ad-Blocker.

User log in
User registration
Registrations are open
Click here to register
Email: forgotten email?
Password: lost pass?
  Resend activation email
Get VPN Now for FREE! Get VPN Now for FREE! Get VPN Now for FREE! Get VPN Now for FREE! Protect your privacy! Use a VPN When Downloading Torrents
Your IP Address is . Location is .
Your Internet Provider is tracking your torrent activity! Hide your IP ADDRESS with a VPN!
We strongly recommend using Demonoid VPN to anonymize your torrenting!
Also, while you are using Vv7c0eedPa4a6f2bN you get No Ads on Demonoid site Get a4a6f2bVPN Na4a6f2bow!
Details for Chaos Walking 2021 Bonus BR EAC3 VFF VFQ ENG 1080p x265 10Bits T0M (Le Chaos en marche)
Created by Ratio: 1.00T0M 11 months ago 0   0
Movies : Sci-Fi : HEVC / x265 : French
______________________________________________________________________________________________________________
Chaos Walking 2021
Bluray · 1080p x265 10bit · DD+ 5.1 VFF VFQ ENG
More Bonus
¯¯¯¯¯¯¯¯¯¯¯¯¯¯¯¯¯¯¯¯¯¯¯¯¯¯¯¯¯¯¯¯¯¯¯¯¯¯¯¯¯¯¯¯¯¯¯¯¯¯¯¯¯¯¯¯¯¯¯¯¯¯¯¯¯¯¯¯¯¯¯¯¯¯¯¯¯¯¯¯

H1zi6IR4_o.png

Year : 2021
Country : ovX4oFBe_o.png United States, I54xJ7FH_o.png Canada, wsrPSKO8_o.png Hong Kong, 9HQxybTJ_o.png Luxembourg
Original, French and English Title : Chaos Walking
Quebec Title : Le Chaos en marche
Director : Doug Liman
Music from : Marco Beltrami, Brandon Roberts
Actors : Tom Holland, Daisy Ridley, Mads Mikkelsen, Demián Bichir, David Oyelowo, Cynthia Erivo, Nick Jonas, Ray McKinnon, Kurt Sutter
Genre : Sci-Fi, Western, Adventure, Action
Certificate : zDhebyzD_o.png All public
Budget : 125 000 000 $ · Recipe : 20 021 870 $ · ratio : 16 %
Link : Allociné [www.allocine.fr] 2,7/5 · IMDB [www.imdb.com] 5,7/10 · TMDB [www.themoviedb.org] 69% · SensCritique [www.senscritique.com] 5,2/10 · RottenTomatoes [www.rottentomatoes.com] 22% (71%) · Wiki [fr.wikipedia.org] · Teaser [www.dailymotion.com]

French Plot
Dans un futur proche, les femmes ont disparu. Le monde de Todd Hewitt n’est habité que par des hommes, et tous sont soumis au Bruit, une mystérieuse force qui révèle leurs pensées et permet à chacun de connaître celles des autres. Lorsqu’une jeune femme, Viola Eade, atterrit en catastrophe sur cette planète, elle s’y retrouve en grand danger… Todd jure de la protéger, mais pour réussir, il va devoir révéler sa force intérieure et percer les sombres secrets qui étouffent son monde…
Adaptation du : 1er Roman de la série Le Chaos en marche (Chaos Walking) [fr.wikipedia.org] de Patrick Ness [fr.wikipedia.org] paru entre 2008 et 2010

Bonus
Bluray Opening - 45s - 3,84Mib - 1920x1080 HEVC 10Bits - MUSIQUE - fbcb9004
Making of - Inner Thoughts With Patrick Ness - 9mn - 81,40Mib - 1920x1080 HEVC 10Bits - VOSTFR - 34400e08
Making of - The Source of the Silence - 7mn - 76,90Mib - 1920x1080 HEVC 10Bits - VOSTFR - 6abcc33e
Making of - Citizens of Prentisstown - 10mn - 102,0Mib - 1920x1080 HEVC 10Bits - VOSTFR - 223c24a7
Making of - The Music - 4mn - 58,60Mib - 1920x1080 HEVC 10Bits - VOSTFR - 202e38c9
Making of - A Director s Noise - 18mn - 262,0Mib - 1920x1080 HEVC 10Bits - VOSTFR - 1e7bb554
7 Deleted Scenes with comment by Doug Liman - 45mn - 976,0Mib - 1920x1080 HEVC 10Bits - VOSTFR - b2bd3eec
Logo Metropolitan Films - 11s - 2,75Mib - 1920x1080 HEVC 10Bits - MUSIQUE - 2f9dc201
Audiodescription - 12s - 1,82Mib - 1920x1080 HEVC 10Bits - VFF - 30018c4b
Color SDH FR - 20s - 1,63Mib - 1920x1080 HEVC 10Bits - MUET - 668d9832
Version FR - 6s - 83,30Kib - 1920x1080 HEVC 10Bits - MUET - a196054d
11 bonus, total 1,53Gib 1h35mn

5jDyEAwM_o.gif
If you enjoy and wish to support, please stay in seeding

Technical Details
¯¯¯¯¯¯¯¯¯¯¯¯¯¯¯¯¯¯¯¯¯¯¯¯¯¯¯¯¯¯¯¯¯¯¯¯¯¯¯¯¯¯¯¯¯¯¯¯¯¯¯¯¯¯¯¯¯¯¯¯¯¯¯¯¯¯¯¯¯¯¯¯¯¯¯¯¯¯¯¯¯¯¯¯¯¯¯¯¯¯¯¯¯¯¯¯¯¯¯¯
AJT0u8LS_o.png [fr.wikipedia.org] G50yLWYj_o.png [fr.wikipedia.org] ccriKpkC_o.png [fr.wikipedia.org] fcIGykaW_o.png [fr.wikipedia.org] vkgGBxUu_o.png [fr.wikipedia.org]
Media
Matroska 4,18Gio 1h49mn 5491Kbps, Total 5,71Gio 3h24mn
Video
HEVC/H265 [fr.wikipedia.org] 1920x804 @23.976 [email protected]@Main 10bits 3799Kbps VerySlow qp23,49
Audio
o7YNGqxs_o.png [fr.wikipedia.org] zkFWwOXm_o.png True French 5.1 EAC3 [fr.wikipedia.org] 448Kbps 48KHz 16bits
F1UJN91R_o.png [fr.wikipedia.org] zkFWwOXm_o.png Quebec French 5.1 AC3 [fr.wikipedia.org] 448Kbps 48KHz 16bits (untouched)
ovX4oFBe_o.png [fr.wikipedia.org] zkFWwOXm_o.png English (OV) 5.1 EAC3 [fr.wikipedia.org] 448Kbps 48KHz 16bits
o7YNGqxs_o.png [fr.wikipedia.org] WkBbCRle_o.png SZmm6BIW_o.png [fr.wikipedia.org] True French Descriptive Audio 2.0 EAC3 [fr.wikipedia.org] 192Kbps 48KHz 16bits
ovX4oFBe_o.png [fr.wikipedia.org] WkBbCRle_o.png English Commentary by Doug Liman, Alison Winter and Doc Crotzer 2.0 EAC3 [fr.wikipedia.org] 128Kbps 48KHz 16bits
Subtitles
o7YNGqxs_o.png [fr.wikipedia.org] True French forced SRT
o7YNGqxs_o.png [fr.wikipedia.org] True French full SRT
o7YNGqxs_o.png [fr.wikipedia.org] True French forced PGS
o7YNGqxs_o.png [fr.wikipedia.org] True French full PGS
o7YNGqxs_o.png [fr.wikipedia.org] IikNajlM_o.png [fr.wikipedia.org] True French sourds&malentendants PGS
Chapters
International
Screenshot
nuoHBgmB_t.png [images2.imgbox.com] 23jEXAgB_t.png [images2.imgbox.com] IUmuh53f_t.png [images2.imgbox.com] 79wAbZqC_t.png [images2.imgbox.com]

yHuoDDx7_t.png [images2.imgbox.com] x8KBnCaB_t.png [images2.imgbox.com] jPGkJGm7_t.png [images2.imgbox.com] L7qsMOEr_t.png [images2.imgbox.com]

MyDn0NSY_t.png [images2.imgbox.com] 5ROpEbEe_t.png [images2.imgbox.com] 0sJyUk2U_t.png [images2.imgbox.com] gdwcxLWD_t.png [images2.imgbox.com]

Origin
Bluray : AVC 1080p 26010Kbps, VFF 7.1 Dolby TrueHD+Atmos 3246Kbps, ENG 7.1 Dolby TrueHD+Atmos 4405Kbps [UTT] + VFQ 5.1 AC3 448Kbps [Winks]

NFO
¯¯¯¯¯¯¯¯¯¯¯¯¯¯¯¯¯¯¯¯¯¯¯¯¯¯¯¯¯¯¯¯¯¯¯¯¯¯¯¯¯¯¯¯¯¯¯¯¯¯¯¯¯¯¯¯¯¯¯¯¯¯¯¯¯¯¯¯¯¯¯¯¯¯¯¯¯¯¯¯¯¯¯¯¯¯¯¯¯¯¯¯¯¯¯¯¯¯¯¯

General
Complete name : Chaos Walking 1 2021 BR EAC3 VFF VFQ ENG 1080p x265 10Bits T0M.mkv
Format : Matroska
Format version : Version 4
File size : 4.18 GiB
Duration : 1 h 49 min
Overall bit rate : 5 491 kb/s
Movie name : Chaos Walking 2021 de Doug Liman avec Tom Holland, Daisy Ridley, Mads Mikkelsen, Demián Bichir, David Oyelowo, Cynthia Erivo, Nick Jonas, Ray McKinnon, Kurt Sutter. (allocine=198040,imdb=tt2076822,tmdb=412656) T0M
Description : Two unlikely companions embark on a perilous adventure through the badlands of an unexplored planet as they try to escape a dangerous and disorienting reality where all thoughts are seen and heard by everyone.
Encoded date : UTC 2021-09-20 18:04:44
Writing application : mkvmerge v60.0.0 ('Are We Copies?') 64-bit
Writing library : libebml v1.4.2 + libmatroska v1.6.4
Cover : Yes
Attachments : Cover.jpg
ACTORS : Tom Holland, Daisy Ridley, Mads Mikkelsen, Demián Bichir, David Oyelowo, Cynthia Erivo, Nick Jonas, Ray McKinnon, Kurt Sutter
COMPOSER : Marco Beltrami, Brandon Roberts
COUNTRY : United States, Canada, Hong Kong, Luxembourg
DIRECTOR : Doug Liman
GENRE : Sci-Fi, Western, Adventure, Action
HD_VIDEO : 2
ID_ALLOCINE : 198040
ID_IMDB : tt2076822
ID_TMDB : 412656
ID_TYPE_MEDIA : MOVIE
MEDIA_TYPE : 9
ORIGINAL_TITLE : Chaos Walking
RATING : 5.7
YEAR : 2021

Video
ID : 1
Format : HEVC
Format/Info : High Efficiency Video Coding
Format profile : Main [email protected]@Main
Codec ID : V_MPEGH/ISO/HEVC
Duration : 1 h 49 min
Bit rate : 3 799 kb/s
Width : 1 920 pixels
Height : 804 pixels
Display aspect ratio : 2.40:1
Frame rate mode : Constant
Frame rate : 23.976 (24000/1001) FPS
Color space : YUV
Chroma subsampling : 4:2:0
Bit depth : 10 bits
Bits/(Pixel*Frame) : 0.103
Stream size : 2.89 GiB (69%)
Title : Video HEVC 1920x804 (2.40:1) @23.976 x265 [email protected]@Main 10bits 3800kbps 2pass veryslow 3332mn qp23,49
Writing library : x265 3.2.1+1-b5c86a64bbbe:[Windows][GCC 9.2.0][64 bit] 10bit
Encoding settings : cpuid=1111039 / frame-threads=3 / numa-pools=8 / wpp / no-pmode / no-pme / no-psnr / no-ssim / log-level=2 / input-csp=1 / input-res=1920x804 / interlace=0 / total-frames=0 / level-idc=0 / high-tier=1 / uhd-bd=0 / ref=5 / no-allow-non-conformance / no-repeat-headers / annexb / no-aud / no-hrd / info / hash=0 / no-temporal-layers / open-gop / min-keyint=24 / keyint=240 / gop-lookahead=0 / bframes=8 / b-adapt=2 / b-pyramid / bframe-bias=0 / rc-lookahead=120 / lookahead-slices=0 / scenecut=40 / radl=0 / no-splice / no-intra-refresh / ctu=64 / min-cu-size=8 / rect / amp / max-tu-size=32 / tu-inter-depth=3 / tu-intra-depth=3 / limit-tu=0 / rdoq-level=2 / dynamic-rd=0.00 / no-ssim-rd / signhide / no-tskip / nr-intra=0 / nr-inter=0 / no-constrained-intra / strong-intra-smoothing / max-merge=5 / limit-refs=0 / no-limit-modes / me=3 / subme=4 / merange=57 / temporal-mvp / no-hme / weightp / weightb / no-analyze-src-pics / deblock=0:0 / sao / no-sao-non-deblock / rd=6 / selective-sao=4 / no-early-skip / rskip / no-fast-intra / no-tskip-fast / no-cu-lossless / b-intra / no-splitrd-skip / rdpenalty=0 / psy-rd=2.00 / psy-rdoq=1.00 / no-rd-refine / no-lossless / cbqpoffs=0 / crqpoffs=0 / rc=abr / bitrate=3800 / qcomp=0.60 / qpstep=4 / stats-write=0 / stats-Read=2 / cplxblur=20.0 / qblur=0.5 / ipratio=1.40 / pbratio=1.30 / aq-mode=2 / aq-strength=1.00 / cutree / zone-count=0 / no-strict-cbr / qg-size=32 / no-rc-grain / qpmax=69 / qpmin=0 / no-const-vbv / sar=1 / overscan=0 / videoformat=5 / range=0 / colorprim=1 / transfer=1 / colormatrix=1 / chromaloc=0 / display-window=0 / cll=0,0 / min-luma=0 / max-luma=1023 / log2-max-poc-lsb=8 / vui-timing-info / vui-hrd-info / slices=1 / no-opt-qp-pps / no-opt-ref-list-length-pps / no-multi-pass-opt-rps / scenecut-bias=0.05 / no-opt-cu-delta-qp / no-aq-motion / no-hdr / no-hdr-opt / no-dhdr10-opt / no-idr-recovery-sei / analysis-reuse-level=5 / scale-factor=0 / refine-intra=0 / refine-inter=0 / refine-mv=1 / refine-ctu-distortion=0 / no-limit-sao / ctu-info=0 / no-lowpass-dct / refine-analysis-type=0 / copy-pic=1 / max-ausize-factor=1.0 / no-dynamic-refine / no-single-sei / no-hevc-aq / no-svt / no-field / qp-adaptation-range=1.00
Default : Yes
Forced : No
Color range : Limited
Color primaries : BT.709
Transfer characteristics : BT.709
Matrix coefficients : BT.709

Audio #1
ID : 2
Format : E-AC-3
Format/Info : Enhanced AC-3
Commercial name : Dolby Digital Plus
Codec ID : A_EAC3
Duration : 1 h 48 min
Bit rate mode : Constant
Bit rate : 448 kb/s
Channel(s) : 6 channels
Channel layout : L R C LFE Ls Rs
Sampling rate : 48.0 kHz
Frame rate : 31.250 FPS (1536 SPF)
Compression mode : Lossy
Stream size : 349 MiB (8%)
Title : Français 5.1 EAC3 448kbps 48khz 16bits
Language : French
Service kind : Complete Main
Default : Yes
Forced : No

Audio #2
ID : 3
Format : AC-3
Format/Info : Audio Coding 3
Commercial name : Dolby Digital
Codec ID : A_AC3
Duration : 1 h 48 min
Bit rate mode : Constant
Bit rate : 448 kb/s
Channel(s) : 6 channels
Channel layout : L R C LFE Ls Rs
Sampling rate : 48.0 kHz
Frame rate : 31.250 FPS (1536 SPF)
Compression mode : Lossy
Delay relative to video : 5 ms
Stream size : 349 MiB (8%)
Title : Québécois 5.1 AC3 448kbps 48khz 16bits (untouched)
Language : French
Service kind : Complete Main
Default : No
Forced : No

Audio #3
ID : 4
Format : E-AC-3
Format/Info : Enhanced AC-3
Commercial name : Dolby Digital Plus
Codec ID : A_EAC3
Duration : 1 h 48 min
Bit rate mode : Constant
Bit rate : 448 kb/s
Channel(s) : 6 channels
Channel layout : L R C LFE Ls Rs
Sampling rate : 48.0 kHz
Frame rate : 31.250 FPS (1536 SPF)
Compression mode : Lossy
Stream size : 349 MiB (8%)
Title : English 5.1 EAC3 448kbps 48khz 16bits
Language : English
Service kind : Complete Main
Default : No
Forced : No

Audio #4
ID : 5
Format : E-AC-3
Format/Info : Enhanced AC-3
Commercial name : Dolby Digital Plus
Codec ID : A_EAC3
Duration : 1 h 48 min
Bit rate mode : Constant
Bit rate : 192 kb/s
Channel(s) : 2 channels
Channel layout : L R
Sampling rate : 48.0 kHz
Frame rate : 31.250 FPS (1536 SPF)
Compression mode : Lossy
Stream size : 150 MiB (3%)
Title : Français Audiodescription 2.0 EAC3 192kbps 48khz 16bits
Language : French
Service kind : Complete Main
Default : No
Forced : No

Audio #5
ID : 6
Format : E-AC-3
Format/Info : Enhanced AC-3
Commercial name : Dolby Digital Plus
Codec ID : A_EAC3
Duration : 1 h 48 min
Bit rate mode : Constant
Bit rate : 128 kb/s
Channel(s) : 2 channels
Channel layout : L R
Sampling rate : 48.0 kHz
Frame rate : 31.250 FPS (1536 SPF)
Compression mode : Lossy
Stream size : 99.7 MiB (2%)
Title : English comment by Doug Liman, Alison Winter and Doc Crotzer 2.0 EAC3 128kbps 48khz 16bits
Language : English
Service kind : Complete Main
Default : No
Forced : No

Text #1
ID : 7
Format : UTF-8
Codec ID : S_TEXT/UTF8
Codec ID/Info : UTF-8 Plain Text
Duration : 1 h 49 min
Bit rate : 1 b/s
Count of elements : 15
Stream size : 1.21 KiB (0%)
Title : Français forcé (Passages)
Language : French
Default : Yes
Forced : Yes

Text #2
ID : 8
Format : UTF-8
Codec ID : S_TEXT/UTF8
Codec ID/Info : UTF-8 Plain Text
Duration : 1 h 49 min
Bit rate : 47 b/s
Count of elements : 1281
Stream size : 37.7 KiB (0%)
Title : Français complet (Tous le film)
Language : French
Default : No
Forced : No

Text #3
ID : 9
Format : PGS
Muxing mode : zlib
Codec ID : S_HDMV/PGS
Codec ID/Info : Picture based subtitle format used on BDs/HD-DVDs
Duration : 1 h 38 min
Bit rate : 329 b/s
Count of elements : 24
Stream size : 238 KiB (0%)
Title : Français forcé (Passages) PGS
Language : French
Default : No
Forced : Yes

Text #4
ID : 10
Format : PGS
Muxing mode : zlib
Codec ID : S_HDMV/PGS
Codec ID/Info : Picture based subtitle format used on BDs/HD-DVDs
Duration : 1 h 48 min
Bit rate : 22.2 kb/s
Count of elements : 2560
Stream size : 17.2 MiB (0%)
Title : Français complet (Tous le film) PGS
Language : French
Default : No
Forced : No

Text #5
ID : 11
Format : PGS
Muxing mode : zlib
Codec ID : S_HDMV/PGS
Codec ID/Info : Picture based subtitle format used on BDs/HD-DVDs
Duration : 1 h 48 min
Bit rate : 28.3 kb/s
Count of elements : 3812
Stream size : 21.9 MiB (1%)
Title : Français sourds&malentendants PGS
Language : French
Default : No
Forced : No

Menu
00:00:00.000 : :01 - 00:00:00
00:05:16.858 : :02 - 00:05:16
00:13:20.549 : :03 - 00:13:20
00:20:18.634 : :04 - 00:20:18
00:27:39.824 : :05 - 00:27:39
00:35:54.110 : :06 - 00:35:54
00:39:41.253 : :07 - 00:39:41
00:45:45.367 : :08 - 00:45:45
00:51:22.162 : :09 - 00:51:22
00:56:34.557 : :10 - 00:56:34
01:01:40.321 : :11 - 01:01:40
01:07:13.404 : :12 - 01:07:13
01:15:41.954 : :13 - 01:15:41
01:22:30.779 : :14 - 01:22:30
01:30:43.938 : :15 - 01:30:43
01:36:45.800 : :16 - 01:36:45
01:38:45.657 : :17 - 01:38:45


Facebook Twitter Digg Reddit LinkedIn StumbleUpon Email
Show Demonoid some love with BitCoin: 1DNoidyJgB159bLJT5hDnCkZ4uQrhkfBVk How to get BitCoins?
Peers: 1 seeders, 0 leechers, 98 total - Updated: 1419 hours 6 minutes 43 seconds ago
Size: 5.71 GB  

Sponsored links
Related torrents
Torrents you may also like:
Download this torrent
Extra information
Tracker: udp://tracker.opentrackr.org:1337/announce
Torrent hash: 243E8B04 0668FC31 E1DDD474 33D595A7 C9C1FADE
Files described inside the torrent: 15 [ Click here to show the full list ]
Comments
No comments posted yet

Disclaimer: None of the files shown here are actually hosted or transmitted by this server. The links are provided solely by this site's users. The site moderation is also a service provided by the site's users. The administrator of this site (demonoid.is) cannot be held responsible for what its users post, or any other actions of its users. You may not use this site to distribute or download any material when you do not have the legal rights to do so. It is your own responsibility to adhere to these terms.

By using this site you indicate your agreement to our terms and conditions
   
Link to us | Contact us | API | Feeds/RSS | DMCA
This site and the Demonoid logo are Copyright © Demonoid. All rights reserved.

Show Demonoid some love with 1DNoidyJgB159bLJT5hDnCkZ4uQrhkfBVk