User log in
User registration
Registrations are open
Click here to register
Email: forgotten email?
Password: lost pass?
  Resend activation email
Get VPN Now for FREE! Get VPN Now for FREE! Get VPN Now for FREE! Get VPN Now for FREE! Get VPN Now for FREE! Get VPN Now for FREE! Get VPN Now for FREE! Get VPN Now for FREE! Protect your privacy! Use a VPN When Downloading Torrents
Your IP Address is . Location is .
Your Internet Provider is tracking your torrent activity! Hide your IP ADDRESS with a VPN!
We strongly recommend using Trust.Zone VPN to anonymize your torrenting. It's FREE!
Autumn deal! 75% off! Also, while you are using Tw3cf513rusy404b2bt.c8a434eZone VPN you get No Ads for Demonoid members Get y404b2bVPN Ny404b2bow for FREd521791Eb8d0d78!
Details for Avengers Age of Ultron 2015 Bonus BR EAC3 VFF VFQ ENG 1080p x265 10Bits T0M (Avengers 2 L'Ère d'Ultron)
Created by Ratio: 1.00T0M 28 days ago
Movies : Action : HEVC / x265 : French

______________________________________________________________________________________________________________
Avengers : Age of Ultron 2015
Bluray · 1080p x265 10bit · DD+ 5.1 VFF VFQ ENG
More Bonus
¯¯¯¯¯¯¯¯¯¯¯¯¯¯¯¯¯¯¯¯¯¯¯¯¯¯¯¯¯¯¯¯¯¯¯¯¯¯¯¯¯¯¯¯¯¯¯¯¯¯¯¯¯¯¯¯¯¯¯¯¯¯¯¯¯¯¯¯¯¯¯¯¯¯¯¯¯¯¯¯



Year : 2015
Country : United States
Original and English Title : Avengers : Age of Ultron
French Title : Avengers : L'Ère d'Ultron
Director : Joss Whedon
Writer : Joss Whedon, Stan Lee, Jack Kirby, Joe Simon, Jim Starlin
Music from : Brian Tyler, Danny Elfman
Actors : Robert Downey, Chris Hemsworth, Mark Ruffalo, Chris Evans, Scarlett Johansson, Jeremy Renner, James Spader, Samuel L. Jackson
Don Cheadle, Aaron Taylor-Johnson, Elizabeth Olsen, Paul Bettany, Cobie Smulders, Anthony Mackie, Hayley Atwell, Idris Elba
Linda Cardellini, Stellan Skarsgård, Claudia Kim, Thomas Kretschmann
Genre : Super hero, Action, Adventure, Sci-Fi, CyberPunk
Certificate :  All public
Budget : 250 000 000 $ · Recipe : 1 478 600 938 $ · ratio : 591 %
Link : Allociné 3,8/5 ·  IMDB 7,3/10 ·  TMDB 73% ·  SensCritique 5,7/10 ·  RottenTomatoes 76% (83%) ·  Wiki ·  Teaser

French Plot
Alors que Tony Stark tente de relancer un programme de maintien de la paix jusque-là suspendu, les choses tournent mal et les super-héros Iron Man, Captain America, Thor, Hulk, Black Widow et Hawkeye vont devoir à nouveau unir leurs forces pour combattre le plus puissant de leurs adversaires : le terrible Ultron, un être technologique terrifiant qui s’est juré d’éradiquer l’espèce humaine. Afin d’empêcher celui-ci d’accomplir ses sombres desseins, des alliances inattendues se scellent, les entraînant dans une incroyable aventure et une haletante course contre le temps…
Adaptations des : Marvel Comics 1939

Bonus
4 Deleted Scenes - 12mn - 57,50Mib - 1920x1080 HEVC 10Bits - VOSTFR - 6c6c250f
A Global Adventure - 3mn - 43,70Mib - 1920x1080 HEVC 10Bits - VOSTFR - eeaaa806
Betisier - 3mn - 20,20Mib - 1920x1080 HEVC 10Bits - VOSTFR - 75627540
Making of - 20mn - 237,0Mib - 1920x1080 HEVC 10Bits - VOSTFR - 83c3dca1
The Infinity Stones - 7mn - 68,30Mib - 1920x1080 HEVC 10Bits - VOSTFR - 89fb2d6a
5 bonus, total 426,7Mib 47mn

Marvel Cinematic Universe
2003 : Hulk + Bonus
Phase I
2008 : Iron Man + Bonus, The Incredible Hulk
2010 : Iron Man 2
2011 : Thor + Bonus, Captain America First Avenger + Bonus
2012 : Avengers
Phase II
2013 : Iron Man 3 + Bonus, Thor 2 The Dark World + Bonus
2014 : Captain America 2 The Winter Soldier + Bonus, Guardians of the Galaxy + Bonus
2015 : Avengers 2 Age of Ultron + Bonus, Ant-Man + Bonus
Phase III
2016 : Captain America 3 Civil War + Bonus, Doctor Strange
2017 : Guardians of the Galaxy 2 + Bonus, Spider-Man 1 Homecoming + Bonus, Thor 3 Ragnarok + Bonus
2018 : Black Panther + Bonus, Avengers 3 Infinity War + Bonus, Ant-Man 2 and the Wasp + Bonus
2019 : Captain Marvel + Bonus, Avengers 4 Endgame + Bonus, Spider-Man 2 Far From Home
Phase IV
2021 : Black Widow + Bonus


If you enjoy and wish to support, please stay in seeding

Technical Details
¯¯¯¯¯¯¯¯¯¯¯¯¯¯¯¯¯¯¯¯¯¯¯¯¯¯¯¯¯¯¯¯¯¯¯¯¯¯¯¯¯¯¯¯¯¯¯¯¯¯¯¯¯¯¯¯¯¯¯¯¯¯¯¯¯¯¯¯¯¯¯¯¯¯¯¯¯¯¯¯¯¯¯¯¯¯¯¯¯¯¯¯¯¯¯¯¯¯¯¯
     
Media
Matroska 4,41Gio 2h21mn 4469Kbps, Total 4,83Gio 3h08mn
Video
HEVC/H265 1920x804 @23.976 [email protected]@Main 10bits 3051Kbps VerySlow qp23,44
Audio
   True French 5.1 EAC3 448Kbps 48KHz 16bits
   Quebec French 5.1 EAC3 448Kbps 48KHz 16bits
   English (OV) 5.1 EAC3 448Kbps 48KHz 16bits
Subtitles
 True French forced SRT
 True French full SRT
 True French forced PGS
 True French full PGS
 True French Commentary by Joss Whedon PGS
 Quebec French forced PGS
 Quebec French full PGS
   English full SDH PGS
 English Commentary by Joss Whedon PGS
Chapters
International,    True French,    English
Screenshot
             

           

             

Origin
Bluray : Video AVC 1080p 24064Kbps, VFF 5.1 DTS HRA 2046Kbps, VFQ 5.1 AC3 640Kbps, Anglais TrueHD+Atmos 4631Kbps

NFO
¯¯¯¯¯¯¯¯¯¯¯¯¯¯¯¯¯¯¯¯¯¯¯¯¯¯¯¯¯¯¯¯¯¯¯¯¯¯¯¯¯¯¯¯¯¯¯¯¯¯¯¯¯¯¯¯¯¯¯¯¯¯¯¯¯¯¯¯¯¯¯¯¯¯¯¯¯¯¯¯¯¯¯¯¯¯¯¯¯¯¯¯¯¯¯¯¯¯¯¯

General
Format                                   : Matroska
Format version                           : Version 4 / Version 2
File size                                : 4.41 GiB
Duration                                 : 2 h 21 min
Overall bit rate                         : 4 469 kb/s
Movie name                               : Avengers : L'Ère d'Ultron (Avengers : Age of Ultron) 2015 de Joss Whedon avec Robert Downey, Chris Hemsworth, Mark Ruffalo, Chris Evans, Scarlett Johansson, Jeremy Renner, James Spader, Samuel L. Jackson, Don Cheadle, Aaron Taylor-Johnson, Elizabeth Olsen, Paul Bettany, Cobie Smulders, Anthony Mackie, Hayley Atwell, Idris Elba, Linda Cardellini, Stellan Skarsgård, Claudia Kim, Thomas Kretschmann. Tout public (allocine=198488,imdb=tt2395427) T0M
Encoded date                             : UTC 2018-08-10 12:21:27
Writing application                      : mkvmerge v8.0.0 ('Til The Day That I Die') 64bit
Writing library                          : libebml v1.3.1 + libmatroska v1.4.2
Cover                                    : Yes
Attachments                              : Cover.jpg / Cover2.jpg / Poster.jpg

Video
ID                                       : 1
Format                                   : HEVC
Format/Info                              : High Efficiency Video Coding
Format profile                           : Main [email protected]@Main
Codec ID                                 : V_MPEGH/ISO/HEVC
Duration                                 : 2 h 21 min
Bit rate                                 : 3 051 kb/s
Width                                    : 1 920 pixels
Height                                   : 804 pixels
Display aspect ratio                     : 2.40:1
Frame rate mode                          : Constant
Frame rate                               : 23.976 (24000/1001) FPS
Color space                              : YUV
Chroma subsampling                       : 4:2:0
Bit depth                                : 10 bits
Bits/(Pixel*Frame)                       : 0.082
Stream size                              : 3.01 GiB (68%)
Title                                    : Video HEVC 1920x804 @23.976 x265 [email protected]@Main 10bits 3050kbps 2pass veryslow 2395mn
Writing library                          : x265 2.6:[Windows][GCC 7.3.0][64 bit] 10bit
Encoding settings                        : cpuid=1173503 / frame-threads=3 / numa-pools=8 / wpp / no-pmode / no-pme / no-psnr / no-ssim / log-level=2 / input-csp=1 / input-res=1920x804 / interlace=0 / total-frames=0 / level-idc=0 / high-tier=1 / uhd-bd=0 / ref=5 / no-allow-non-conformance / no-repeat-headers / annexb / no-aud / no-hrd / info / hash=0 / no-temporal-layers / open-gop / min-keyint=24 / keyint=240 / bframes=8 / b-adapt=2 / b-pyramid / bframe-bias=0 / rc-lookahead=40 / lookahead-slices=0 / scenecut=40 / no-intra-refresh / ctu=64 / min-cu-size=8 / rect / amp / max-tu-size=32 / tu-inter-depth=3 / tu-intra-depth=3 / limit-tu=4 / rdoq-level=2 / dynamic-rd=0.00 / no-ssim-rd / signhide / no-tskip / nr-intra=0 / nr-inter=0 / no-constrained-intra / strong-intra-smoothing / max-merge=4 / limit-refs=1 / limit-modes / me=3 / subme=4 / merange=57 / temporal-mvp / weightp / weightb / no-analyze-src-pics / deblock=0:0 / sao / no-sao-non-deblock / rd=6 / no-early-skip / rskip / no-fast-intra / no-tskip-fast / no-cu-lossless / b-intra / no-splitrd-skip / rdpenalty=0 / psy-rd=2.00 / psy-rdoq=1.00 / no-rd-refine / analysis-reuse-mode=0 / no-lossless / cbqpoffs=0 / crqpoffs=0 / rc=abr / bitrate=3050 / qcomp=0.60 / qpstep=4 / stats-write=0 / stats-Read=2 / cplxblur=20.0 / qblur=0.5 / ipratio=1.40 / pbratio=1.30 / aq-mode=1 / aq-strength=1.00 / cutree / zone-count=0 / no-strict-cbr / qg-size=32 / no-rc-grain / qpmax=69 / qpmin=0 / no-const-vbv / sar=1 / overscan=0 / videoformat=5 / range=0 / colorprim=1 / transfer=1 / colormatrix=1 / chromaloc=0 / display-window=0 / max-cll=0,0 / min-luma=0 / max-luma=1023 / log2-max-poc-lsb=8 / vui-timing-info / vui-hrd-info / slices=1 / no-opt-qp-pps / no-opt-ref-list-length-pps / no-multi-pass-opt-rps / scenecut-bias=0.05 / no-opt-cu-delta-qp / no-aq-motion / no-hdr / no-hdr-opt / no-dhdr10-opt / analysis-reuse-level=5 / scale-factor=0 / refine-intra=0 / refine-inter=0 / refine-mv=0 / no-limit-sao / ctu-info=0 / no-lowpass-dct / refine-mv-type=0 / copy-pic=1
Default                                  : Yes
Forced                                   : No
Color range                              : Limited
Color primaries                          : BT.709
Transfer characteristics                 : BT.709
Matrix coefficients                      : BT.709

Audio #1
ID                                       : 2
Format                                   : E-AC-3
Format/Info                              : Enhanced Audio Coding 3
Codec ID                                 : A_EAC3
Duration                                 : 2 h 21 min
Bit rate mode                            : Constant
Bit rate                                 : 448 kb/s
Channel(s)                               : 6 channels
Channel positions                        : Front: L C R, Side: L R, LFE
Sampling rate                            : 48.0 kHz
Frame rate                               : 187.500 FPS (256 SPF)
Compression mode                         : Lossy
Delay relative to video                  : 5 ms
Stream size                              : 453 MiB (10%)
Title                                    : Français 5.1 EAC3 448kbps 48khz 16bits
Language                                 : French
Service kind                             : Complete Main
Default                                  : Yes
Forced                                   : No

Audio #2
ID                                       : 3
Format                                   : E-AC-3
Format/Info                              : Enhanced Audio Coding 3
Codec ID                                 : A_EAC3
Duration                                 : 2 h 21 min
Bit rate mode                            : Constant
Bit rate                                 : 448 kb/s
Channel(s)                               : 6 channels
Channel positions                        : Front: L C R, Side: L R, LFE
Sampling rate                            : 48.0 kHz
Frame rate                               : 187.500 FPS (256 SPF)
Compression mode                         : Lossy
Delay relative to video                  : 6 ms
Stream size                              : 453 MiB (10%)
Title                                    : Québécois 5.1 EAC3 448kbps 48khz 16bits
Language                                 : French
Service kind                             : Complete Main
Default                                  : No
Forced                                   : No

Audio #3
ID                                       : 4
Format                                   : E-AC-3
Format/Info                              : Enhanced Audio Coding 3
Codec ID                                 : A_EAC3
Duration                                 : 2 h 21 min
Bit rate mode                            : Constant
Bit rate                                 : 448 kb/s
Channel(s)                               : 6 channels
Channel positions                        : Front: L C R, Side: L R, LFE
Sampling rate                            : 48.0 kHz
Frame rate                               : 187.500 FPS (256 SPF)
Compression mode                         : Lossy
Delay relative to video                  : 38 ms
Stream size                              : 453 MiB (10%)
Title                                    : English 5.1 EAC3 448kbps 48khz 16bits
Language                                 : English
Service kind                             : Complete Main
Default                                  : No
Forced                                   : No

Text #1
ID                                       : 5
Format                                   : UTF-8
Codec ID                                 : S_TEXT/UTF8
Codec ID/Info                            : UTF-8 Plain Text
Duration                                 : 2 h 21 min
Bit rate                                 : 0 b/s
Count of elements                        : 25
Stream size                              : 767 Bytes (0%)
Title                                    : Français forcé (Passages)
Language                                 : French
Default                                  : Yes
Forced                                   : Yes

Text #2
ID                                       : 6
Format                                   : UTF-8
Codec ID                                 : S_TEXT/UTF8
Codec ID/Info                            : UTF-8 Plain Text
Duration                                 : 2 h 21 min
Bit rate                                 : 47 b/s
Count of elements                        : 1884
Stream size                              : 48.8 KiB (0%)
Title                                    : Français complet (Tous le film)
Language                                 : French
Default                                  : No
Forced                                   : No

Text #3
ID                                       : 7
Format                                   : PGS
Muxing mode                              : zlib
Codec ID                                 : S_HDMV/PGS
Codec ID/Info                            : Picture based subtitle format used on BDs/HD-DVDs
Duration                                 : 2 h 18 min
Bit rate                                 : 60 b/s
Count of elements                        : 18
Stream size                              : 61.2 KiB (0%)
Title                                    : Français forcé (Passages) PGS
Language                                 : French
Default                                  : No
Forced                                   : No

Text #4
ID                                       : 8
Format                                   : PGS
Muxing mode                              : zlib
Codec ID                                 : S_HDMV/PGS
Codec ID/Info                            : Picture based subtitle format used on BDs/HD-DVDs
Duration                                 : 2 h 20 min
Bit rate                                 : 9 205 b/s
Count of elements                        : 3764
Stream size                              : 9.25 MiB (0%)
Title                                    : Français complet (Tous le film) PGS
Language                                 : French
Default                                  : No
Forced                                   : No

Text #5
ID                                       : 9
Format                                   : PGS
Muxing mode                              : zlib
Codec ID                                 : S_HDMV/PGS
Codec ID/Info                            : Picture based subtitle format used on BDs/HD-DVDs
Duration                                 : 2 h 20 min
Bit rate                                 : 17.8 kb/s
Count of elements                        : 4304
Stream size                              : 18.0 MiB (0%)
Title                                    : Français commentaire de Joss Whedon
Language                                 : French
Default                                  : No
Forced                                   : No

Text #6
ID                                       : 10
Format                                   : PGS
Muxing mode                              : zlib
Codec ID                                 : S_HDMV/PGS
Codec ID/Info                            : Picture based subtitle format used on BDs/HD-DVDs
Duration                                 : 2 h 18 min
Bit rate                                 : 103 b/s
Count of elements                        : 26
Stream size                              : 105 KiB (0%)
Title                                    : Québécois forcé (Passages) PGS
Language                                 : French
Default                                  : No
Forced                                   : No

Text #7
ID                                       : 11
Format                                   : PGS
Muxing mode                              : zlib
Codec ID                                 : S_HDMV/PGS
Codec ID/Info                            : Picture based subtitle format used on BDs/HD-DVDs
Duration                                 : 2 h 20 min
Bit rate                                 : 10.8 kb/s
Count of elements                        : 3768
Stream size                              : 10.8 MiB (0%)
Title                                    : Québécois complet (Tous le film) PGS
Language                                 : French
Default                                  : No
Forced                                   : No

Text #8
ID                                       : 12
Format                                   : PGS
Muxing mode                              : zlib
Codec ID                                 : S_HDMV/PGS
Codec ID/Info                            : Picture based subtitle format used on BDs/HD-DVDs
Duration                                 : 2 h 12 min
Bit rate                                 : 13.1 kb/s
Count of elements                        : 4314
Stream size                              : 12.5 MiB (0%)
Title                                    : English full SDH PGS
Language                                 : English
Default                                  : No
Forced                                   : No

Text #9
ID                                       : 13
Format                                   : PGS
Muxing mode                              : zlib
Codec ID                                 : S_HDMV/PGS
Codec ID/Info                            : Picture based subtitle format used on BDs/HD-DVDs
Duration                                 : 2 h 15 min
Bit rate                                 : 20.3 kb/s
Count of elements                        : 4408
Stream size                              : 19.6 MiB (0%)
Title                                    : English comment by Joss Whedon
Language                                 : English
Default                                  : No
Forced                                   : No

Menu
00:00:00.000                             : :01 - 00:00:00 - fr:Le sceptre de Loki - en:Battle for Loki's Scepter
00:12:15.192                             : :02 - 00:12:15 - fr:Naissance d'Ultron - en:Birth of Ultron
00:21:23.949                             : :03 - 00:21:23 - fr:Fête des Avengers - en:Avengers House Party
00:33:01.771                             : :04 - 00:33:01 - fr:Conséquence de l'attaque  - en:Attack Aftermath
00:36:07.623                             : :05 - 00:36:07 - fr:Ultron et les Jumeaux  - en:Ultron Meers the Twins
00:42:00.768                             : :06 - 00:42:00 - fr:Jeux d'esprit - en:Mind Games
00:52:44.744                             : :07 - 00:52:44 - fr:Hulk contre Hulkbuster - en:Hulk vs. Hulkbuster
00:59:01.871                             : :08 - 00:59:01 - fr:Une maison sûre - en:The Safe House
01:15:51.088                             : :09 - 01:15:51 - fr:Vol de berceau  - en:Cradle Robbing
01:27:08.598                             : :10 - 01:27:08 - fr:La vision de Birthof - en:Birthof the Vision
01:36:44.757                             : :11 - 01:36:44 - fr:La bataille de Sokovie - en:The Battle of Sokovia
01:54:35.326                             : :12 - 01:54:35 - fr:C'est le mieux que vous pouvez faire ? - en:Is That the Best You Can Do?
02:06:27.580                             : :13 - 02:06:27 - fr:Les nouveaux Avengers - en:The New Avengers
02:11:08.026                             : :14 - 02:11:08 - fr:Générique - en:End Credits
02:13:10.390                             : :15 - 02:13:10 - fr:Thanos - en:Thanos
02:13:32.420                             : :16 - 02:13:32 - fr:Générique de fin - en:End Credits


Facebook Twitter Digg Reddit LinkedIn StumbleUpon Email
Show Demonoid some love with BitCoin: 1DNoidyJgB159bLJT5hDnCkZ4uQrhkfBVk How to get BitCoins?
Peers: 2 seeders, 0 leechers, 39 total - Updated: 15 days ago [ Update now ]
Size: 4.83 GB  

Sponsored links
Related torrents
Torrents you may also like:
Download this torrent
Extra information
Tracker: udp://tracker.opentrackr.org:1337/announce
Torrent hash: 8BACCEE1 737C1FAB 69FB723E 1D010FFC 6F6B47FA
Files described inside the torrent: 8 [ Click here to show the full list ]
Comments
No comments posted yet

Disclaimer: None of the files shown here are actually hosted or transmitted by this server. The links are provided solely by this site's users. The site moderation is also a service provided by the site's users. The administrator of this site (demonoid.is) cannot be held responsible for what its users post, or any other actions of its users. You may not use this site to distribute or download any material when you do not have the legal rights to do so. It is your own responsibility to adhere to these terms.

By using this site you indicate your agreement to our terms and conditions
   
Link to us | Contact us | API | Commemoration | Feeds/RSS | DMCA
This site and the Demonoid logo are Copyright © Demonoid. All rights reserved.

Show Demonoid some love with 1DNoidyJgB159bLJT5hDnCkZ4uQrhkfBVk