User log in
User registration
Registrations are open
Click here to register
Email: forgotten email?
Password: lost pass?
  Resend activation email
Get VPN Now for FREE! Get VPN Now for FREE! Get VPN Now for FREE! Protect your privacy! Use a VPN When Downloading Torrents
Your IP Address is . Location is .
Your Internet Provider is tracking your torrent activity! Hide your IP ADDRESS with a VPN!
We strongly recommend using Trust.Zone VPN to anonymize your torrenting. It's FREE!
Also, while you are using Tp4e800drust40928bt.g123bfeZone VPN you get No Ads for Demonoid members Get t40928bVPN Nt40928bow for FREp0477a3Erabafbf!
Details for Captain Marvel 2019 IMAX Bonus BR EAC3 VFF VFQ ENG 1080p x265 10Bits T0M (Capitaine Marvel)
Created by Ratio: 1.00T0M 8 months ago 0   0
Movies : Action : HEVC / x265 : French

______________________________________________________________________________________________________________
Captain Marvel 2019
Bluray · 1080p x265 10bit · DD+ 5.1 VFF VFQ ENG · IMAX
More Bonus
¯¯¯¯¯¯¯¯¯¯¯¯¯¯¯¯¯¯¯¯¯¯¯¯¯¯¯¯¯¯¯¯¯¯¯¯¯¯¯¯¯¯¯¯¯¯¯¯¯¯¯¯¯¯¯¯¯¯¯¯¯¯¯¯¯¯¯¯¯¯¯¯¯¯¯¯¯¯¯¯



Year : 2019
Country : United States
Original, French and English Title : Captain Marvel
Quebec Title : Capitaine Marvel
Director : Anna Boden, Ryan Fleck
Writer : Anna Boden, Ryan Fleck, Geneva Robertson-Dworet, Nicole Perlman, Meg LeFauve
Music from : Pınar Toprak
Actors : Brie Larson, Samuel L. Jackson, Ben Mendelsohn, Jude Law, Annette Bening, Djimon Hounsou, Lee Pace, Lashana Lynch, Gemma Chan
Clark Gregg, Rune Temte, Algenis Perez Soto, Mckenna Grace
Genre : Super hero, Action, Sci-Fi, Fantasy, Adventure
Certificate :  From 8 years old
Budget : 152 000 000 $ · Recipe : 1 125 573 688 $ · ratio : 741 %
Link : Allociné 3,6/5 ·  IMDB 6,8/10 ·  TMDB 69% ·  SensCritique 5,7/10 ·  RottenTomatoes 79% (45%) ·  Wiki ·  Teaser

                           

French Plot
Captain Marvel raconte l’histoire de Carol Danvers qui va devenir l’une des super-héroïnes les plus puissantes de l’univers lorsque la Terre se révèle l’enjeu d’une guerre galactique entre deux races extraterrestres.
Adaptations des : Marvel Comics 1939

Bonus
Introduction with Anna Boden and Ryan Fleck - 1mn - 15,90Mib - 1920x1080 HEVC 10Bits - VOSTFR - cb116b5c
Makling of - 23mn - 213,0Mib - 1920x1080 HEVC 10Bits - VOSTFR - 1b6a4375
6 Deleted Scenes - 8mn - 35,40Mib - 1920x1080 HEVC 10Bits - VOSTFR - 95af3154
Gag Reel - 2mn - 15,30Mib - 1920x1080 HEVC 10Bits - VOSTFR - 82e908fd
Bluray Opening - 52s - 9,38Mib - 1920x1080 HEVC 10Bits - MUSIQUE - 3f2c9c3d
Bluray Looping - 52s - 9,38Mib - 1920x1080 HEVC 10Bits - MUSIQUE - 4493cefd
Teaser - Captain America The First Avenger - 32s - 6,02Mib - 1920x1080 HEVC 10Bits - VO - 2f778991
Teaser - Marvel Contest of Champions - 32s - 9,74Mib - 1920x1080 HEVC 10Bits - MUSIQUE - ac1abc46
Teaser - Marvel Future Fight - 32s - 8,91Mib - 1920x1080 HEVC 10Bits - MUSIQUE - 29009b18
Teaser - Marvel Puzzle Quest - 32s - 5,45Mib - 1920x1080 HEVC 10Bits - MUSIQUE - 8a395e6d
Teaser - Marvel Rising - 1mn - 9,36Mib - 1920x1080 HEVC 10Bits - VO - 8149a7cc
Teaser - Marvel Strike Force - 31s - 10,90Mib - 1920x1080 HEVC 10Bits - MUSIQUE - 4b4af937
Teaser - Marvel Studios - 40s - 10,40Mib - 1920x1080 HEVC 10Bits - MUSIQUE - d6b28f7e
Teaser - Marvel Studios - 30s - 832,0Kib - 1920x1080 HEVC 10Bits - MUET - 880201c0
14 bonus, total 360,0Mib 42mn


Marvel Cinematic Universe
2003 : Hulk + Bonus
Phase I
2008 : Iron Man + Bonus, The Incredible Hulk
2010 : Iron Man 2
2011 : Thor + Bonus, Captain America First Avenger + Bonus
2012 : Avengers
Phase II
2013 : Iron Man 3 + Bonus, Thor 2 The Dark World + Bonus
2014 : Captain America 2 The Winter Soldier + Bonus, Guardians of the Galaxy + Bonus
2015 : Avengers 2 Age of Ultron + Bonus, Ant-Man + Bonus
Phase III
2016 : Captain America 3 Civil War + Bonus, Doctor Strange
2017 : Guardians of the Galaxy 2 + Bonus, Spider-Man 1 Homecoming + Bonus, Thor 3 Ragnarok + Bonus
2018 : Black Panther + Bonus, Avengers 3 Infinity War + Bonus, Ant-Man 2 and the Wasp + Bonus
2019 : Captain Marvel + Bonus, Avengers 4 Endgame + Bonus, Spider-Man 2 Far From Home
Phase IV
2021 : Black Widow + Bonus, Shang-Chi and the Legend of the Ten Rings + Bonus, Eternals + Bonus, Spider-Man : No Way Home + Bonus


If you enjoy and wish to support, please stay in seeding

Technical Details
¯¯¯¯¯¯¯¯¯¯¯¯¯¯¯¯¯¯¯¯¯¯¯¯¯¯¯¯¯¯¯¯¯¯¯¯¯¯¯¯¯¯¯¯¯¯¯¯¯¯¯¯¯¯¯¯¯¯¯¯¯¯¯¯¯¯¯¯¯¯¯¯¯¯¯¯¯¯¯¯¯¯¯¯¯¯¯¯¯¯¯¯¯¯¯¯¯¯¯¯
     
Media
Matroska 4,05Gio 2h03mn 4689Kbps, Total 4,40Gio 2h45mn
Video
HEVC/H265 1920x1080 @23.976 [email protected]@Main 10bits 3151Kbps VerySlow qp22,75
Audio
   True French 5.1 448Kbps 48KHz 16bits
   Quebec French 5.1 448Kbps 48KHz 16bits
   English (OV) 5.1 448Kbps 48KHz 16bits
   English Commentary by Anna Boden and Ryan Fleck 2.0 128Kbps 48KHz 16bits
Subtitles
 True French forced SRT
 True French full SRT
 True French forced PGS
 True French full PGS
 Quebec French forced PGS
 Quebec French full PGS
 Quebec French Commentary by Anna Boden and Ryan Fleck PGS
   English full SDH PGS
 English Commentary by Anna Boden and Ryan Fleck PGS
Chapters
International,    True French
Screenshot
             

           

             

Origin
Bluray : AVC 1080p 28979Kbps [BluDragon] + VFF 7.1 EAC3 1024Kbps, ENG 7.1 Dolby TrueHD+Atmos 4613Kbps [4k TERMiNAL] + VFQ 5.1 AC3 640Kbps [?]

NFO
¯¯¯¯¯¯¯¯¯¯¯¯¯¯¯¯¯¯¯¯¯¯¯¯¯¯¯¯¯¯¯¯¯¯¯¯¯¯¯¯¯¯¯¯¯¯¯¯¯¯¯¯¯¯¯¯¯¯¯¯¯¯¯¯¯¯¯¯¯¯¯¯¯¯¯¯¯¯¯¯¯¯¯¯¯¯¯¯¯¯¯¯¯¯¯¯¯¯¯¯


General
Complete name                            : Captain Marvel 2019 IMAX BR EAC3 VFF VFQ ENG 1080p x265 10Bits T0M.mkv
Format                                   : Matroska
Format version                           : Version 4
File size                                : 4.05 GiB
Duration                                 : 2 h 3 min
Overall bit rate                         : 4 689 kb/s
Movie name                               : Captain Marvel 2019 de Anna Boden, Ryan Fleck avec Brie Larson, Samuel L. Jackson, Ben Mendelsohn, Jude Law, Annette Bening, Djimon Hounsou, Lee Pace, Lashana Lynch, Gemma Chan, Clark Gregg, Rune Temte, Algenis Perez Soto, Mckenna Grace. Tout public (allocine=141110,imdb=tt4154664) T0M
Encoded date                             : UTC 2020-06-22 09:25:11
Writing application                      : mkvmerge v47.0.0 ('Black Flag') 64-bit
Writing library                          : libebml v1.3.10 + libmatroska v1.5.2
Cover                                    : Yes
Attachments                              : Cover.jpg / Poster1.jpg / Poster2.jpg / Poster3.jpg / Poster4.jpg

Video
ID                                       : 1
Format                                   : HEVC
Format/Info                              : High Efficiency Video Coding
Format profile                           : Main [email protected]@Main
Codec ID                                 : V_MPEGH/ISO/HEVC
Duration                                 : 2 h 3 min
Bit rate                                 : 3 151 kb/s
Width                                    : 1 920 pixels
Height                                   : 1 080 pixels
Display aspect ratio                     : 16:9
Frame rate mode                          : Constant
Frame rate                               : 23.976 (24000/1001) FPS
Color space                              : YUV
Chroma subsampling                       : 4:2:0
Bit depth                                : 10 bits
Bits/(Pixel*Frame)                       : 0.063
Stream size                              : 2.72 GiB (67%)
Title                                    : Video HEVC 1920x1080 (16/9) @23.976 x265 [email protected]@Main 10bits 3150kbps 2pass veryslow 3810mn qp22,75
Writing library                          : x265 3.2.1+1-b5c86a64bbbe:[Windows][GCC 9.2.0][64 bit] 10bit
Encoding settings                        : cpuid=1111039 / frame-threads=3 / numa-pools=8 / wpp / no-pmode / no-pme / no-psnr / no-ssim / log-level=2 / input-csp=1 / input-res=1920x1080 / interlace=0 / total-frames=0 / level-idc=0 / high-tier=1 / uhd-bd=0 / ref=5 / no-allow-non-conformance / no-repeat-headers / annexb / no-aud / no-hrd / info / hash=0 / no-temporal-layers / open-gop / min-keyint=24 / keyint=240 / gop-lookahead=0 / bframes=8 / b-adapt=2 / b-pyramid / bframe-bias=0 / rc-lookahead=120 / lookahead-slices=0 / scenecut=40 / radl=0 / no-splice / no-intra-refresh / ctu=64 / min-cu-size=8 / rect / amp / max-tu-size=32 / tu-inter-depth=3 / tu-intra-depth=3 / limit-tu=0 / rdoq-level=2 / dynamic-rd=0.00 / no-ssim-rd / signhide / no-tskip / nr-intra=0 / nr-inter=0 / no-constrained-intra / strong-intra-smoothing / max-merge=5 / limit-refs=0 / no-limit-modes / me=3 / subme=4 / merange=57 / temporal-mvp / no-hme / weightp / weightb / no-analyze-src-pics / deblock=0:0 / sao / no-sao-non-deblock / rd=6 / selective-sao=4 / no-early-skip / rskip / no-fast-intra / no-tskip-fast / no-cu-lossless / b-intra / no-splitrd-skip / rdpenalty=0 / psy-rd=2.00 / psy-rdoq=1.00 / no-rd-refine / no-lossless / cbqpoffs=0 / crqpoffs=0 / rc=abr / bitrate=3150 / qcomp=0.60 / qpstep=4 / stats-write=0 / stats-Read=2 / cplxblur=20.0 / qblur=0.5 / ipratio=1.40 / pbratio=1.30 / aq-mode=2 / aq-strength=1.00 / cutree / zone-count=0 / no-strict-cbr / qg-size=32 / no-rc-grain / qpmax=69 / qpmin=0 / no-const-vbv / sar=1 / overscan=0 / videoformat=5 / range=0 / colorprim=1 / transfer=1 / colormatrix=1 / chromaloc=0 / display-window=0 / cll=0,0 / min-luma=0 / max-luma=1023 / log2-max-poc-lsb=8 / vui-timing-info / vui-hrd-info / slices=1 / no-opt-qp-pps / no-opt-ref-list-length-pps / no-multi-pass-opt-rps / scenecut-bias=0.05 / no-opt-cu-delta-qp / no-aq-motion / no-hdr / no-hdr-opt / no-dhdr10-opt / no-idr-recovery-sei / analysis-reuse-level=5 / scale-factor=0 / refine-intra=0 / refine-inter=0 / refine-mv=1 / refine-ctu-distortion=0 / no-limit-sao / ctu-info=0 / no-lowpass-dct / refine-analysis-type=0 / copy-pic=1 / max-ausize-factor=1.0 / no-dynamic-refine / no-single-sei / no-hevc-aq / no-svt / no-field / qp-adaptation-range=1.00
Default                                  : Yes
Forced                                   : No
Color range                              : Limited
Color primaries                          : BT.709
Transfer characteristics                 : BT.709
Matrix coefficients                      : BT.709

Audio #1
ID                                       : 2
Format                                   : E-AC-3
Format/Info                              : Enhanced AC-3
Commercial name                          : Dolby Digital Plus
Codec ID                                 : A_EAC3
Duration                                 : 2 h 3 min
Bit rate mode                            : Constant
Bit rate                                 : 448 kb/s
Channel(s)                               : 6 channels
Channel layout                           : L R C LFE Ls Rs
Sampling rate                            : 48.0 kHz
Frame rate                               : 31.250 FPS (1536 SPF)
Compression mode                         : Lossy
Delay relative to video                  : 841 ms
Stream size                              : 396 MiB (10%)
Title                                    : Français 5.1 EAC3 448kbps 48khz 16bits
Language                                 : French
Service kind                             : Complete Main
Default                                  : Yes
Forced                                   : No

Audio #2
ID                                       : 3
Format                                   : E-AC-3
Format/Info                              : Enhanced AC-3
Commercial name                          : Dolby Digital Plus
Codec ID                                 : A_EAC3
Duration                                 : 2 h 3 min
Bit rate mode                            : Constant
Bit rate                                 : 448 kb/s
Channel(s)                               : 6 channels
Channel layout                           : L R C LFE Ls Rs
Sampling rate                            : 48.0 kHz
Frame rate                               : 31.250 FPS (1536 SPF)
Compression mode                         : Lossy
Stream size                              : 396 MiB (10%)
Title                                    : Québécois 5.1 EAC3 448kbps 48khz 16bits
Language                                 : French
Service kind                             : Complete Main
Default                                  : No
Forced                                   : No

Audio #3
ID                                       : 4
Format                                   : E-AC-3
Format/Info                              : Enhanced AC-3
Commercial name                          : Dolby Digital Plus
Codec ID                                 : A_EAC3
Duration                                 : 2 h 3 min
Bit rate mode                            : Constant
Bit rate                                 : 448 kb/s
Channel(s)                               : 6 channels
Channel layout                           : L R C LFE Ls Rs
Sampling rate                            : 48.0 kHz
Frame rate                               : 31.250 FPS (1536 SPF)
Compression mode                         : Lossy
Delay relative to video                  : 873 ms
Stream size                              : 396 MiB (10%)
Title                                    : English 5.1 EAC3 448kbps 48khz 16bits
Language                                 : English
Service kind                             : Complete Main
Default                                  : No
Forced                                   : No

Audio #4
ID                                       : 5
Format                                   : E-AC-3
Format/Info                              : Enhanced AC-3
Commercial name                          : Dolby Digital Plus
Codec ID                                 : A_EAC3
Duration                                 : 2 h 3 min
Bit rate mode                            : Constant
Bit rate                                 : 128 kb/s
Channel(s)                               : 2 channels
Channel layout                           : L R
Sampling rate                            : 48.0 kHz
Frame rate                               : 31.250 FPS (1536 SPF)
Compression mode                         : Lossy
Stream size                              : 113 MiB (3%)
Title                                    : English comment by Anna Boden and Ryan Fleck 2.0 EAC3 128kbps 48khz 16bits
Language                                 : English
Service kind                             : Complete Main
Default                                  : No
Forced                                   : No

Text #1
ID                                       : 6
Format                                   : UTF-8
Codec ID                                 : S_TEXT/UTF8
Codec ID/Info                            : UTF-8 Plain Text
Duration                                 : 2 h 3 min
Bit rate                                 : 2 b/s
Count of elements                        : 20
Stream size                              : 2.07 KiB (0%)
Title                                    : Français forcé (Passages)
Language                                 : French
Default                                  : Yes
Forced                                   : Yes

Text #2
ID                                       : 7
Format                                   : UTF-8
Codec ID                                 : S_TEXT/UTF8
Codec ID/Info                            : UTF-8 Plain Text
Duration                                 : 2 h 3 min
Bit rate                                 : 40 b/s
Count of elements                        : 1292
Stream size                              : 37.0 KiB (0%)
Title                                    : Français complet (Tous le film)
Language                                 : French
Default                                  : No
Forced                                   : No

Text #3
ID                                       : 8
Format                                   : PGS
Muxing mode                              : zlib
Codec ID                                 : S_HDMV/PGS
Codec ID/Info                            : Picture based subtitle format used on BDs/HD-DVDs
Duration                                 : 1 h 55 min
Bit rate                                 : 350 b/s
Count of elements                        : 28
Stream size                              : 296 KiB (0%)
Title                                    : Français forcé (Passages) PGS
Language                                 : French
Default                                  : No
Forced                                   : Yes

Text #4
ID                                       : 9
Format                                   : PGS
Muxing mode                              : zlib
Codec ID                                 : S_HDMV/PGS
Codec ID/Info                            : Picture based subtitle format used on BDs/HD-DVDs
Duration                                 : 2 h 2 min
Bit rate                                 : 24.0 kb/s
Count of elements                        : 2582
Stream size                              : 21.0 MiB (1%)
Title                                    : Français complet (Tous le film) PGS
Language                                 : French
Default                                  : No
Forced                                   : No

Text #5
ID                                       : 10
Format                                   : PGS
Muxing mode                              : zlib
Codec ID                                 : S_HDMV/PGS
Codec ID/Info                            : Picture based subtitle format used on BDs/HD-DVDs
Duration                                 : 1 h 55 min
Bit rate                                 : 660 b/s
Count of elements                        : 74
Stream size                              : 559 KiB (0%)
Title                                    : Québécois forcé (Passages) PGS
Language                                 : French
Default                                  : No
Forced                                   : Yes

Text #6
ID                                       : 11
Format                                   : PGS
Muxing mode                              : zlib
Codec ID                                 : S_HDMV/PGS
Codec ID/Info                            : Picture based subtitle format used on BDs/HD-DVDs
Duration                                 : 2 h 2 min
Bit rate                                 : 29.5 kb/s
Count of elements                        : 2656
Stream size                              : 25.8 MiB (1%)
Title                                    : Québécois complet (Tous le film) PGS
Language                                 : French
Default                                  : No
Forced                                   : No

Text #7
ID                                       : 12
Format                                   : PGS
Muxing mode                              : zlib
Codec ID                                 : S_HDMV/PGS
Codec ID/Info                            : Picture based subtitle format used on BDs/HD-DVDs
Duration                                 : 2 h 2 min
Bit rate                                 : 52.7 kb/s
Count of elements                        : 3696
Stream size                              : 46.3 MiB (1%)
Title                                    : Québécois commentaire de Anna Boden et Ryan Fleck PGS
Language                                 : French
Default                                  : No
Forced                                   : No

Text #8
ID                                       : 13
Format                                   : PGS
Muxing mode                              : zlib
Codec ID                                 : S_HDMV/PGS
Codec ID/Info                            : Picture based subtitle format used on BDs/HD-DVDs
Duration                                 : 2 h 2 min
Bit rate                                 : 33.1 kb/s
Count of elements                        : 3330
Stream size                              : 29.0 MiB (1%)
Title                                    : English full SDH PGS
Language                                 : English
Default                                  : No
Forced                                   : No

Text #9
ID                                       : 14
Format                                   : PGS
Muxing mode                              : zlib
Codec ID                                 : S_HDMV/PGS
Codec ID/Info                            : Picture based subtitle format used on BDs/HD-DVDs
Duration                                 : 2 h 3 min
Bit rate                                 : 58.4 kb/s
Count of elements                        : 3954
Stream size                              : 51.5 MiB (1%)
Title                                    : English comment by Anna Boden and Ryan Fleck PGS
Language                                 : English
Default                                  : No
Forced                                   : No

Menu
00:00:00.000                             : :01 - 00:00:00 - fr:"Encore des rêves"
00:06:52.120                             : :02 - 00:06:52 - fr:Mission de sauvetage
00:14:07.888                             : :03 - 00:14:07 - fr:Manipulation de la mémoire
00:23:18.271                             : :04 - 00:23:18 - fr:Planète C-53
00:29:38.026                             : :05 - 00:29:38 - fr:Un skrull dans le métro
00:35:07.772                             : :06 - 00:35:07 - fr:En quête de réponses
00:44:08.437                             : :07 - 00:44:08 - fr:Projet PEGASUS
00:50:43.498                             : :08 - 00:50:43 - fr:Les renforts arrivent
00:56:18.625                             : :09 - 00:56:18 - fr:Retrouvailles
01:03:02.820                             : :10 - 01:03:02 - fr:Révélation
01:11:17.398                             : :11 - 01:11:17 - fr:"Tu es Carol Danvers"
01:17:49.164                             : :12 - 01:17:49 - fr:Les skrulls survivants
01:27:03.051                             : :13 - 01:27:03 - fr:"Enfin libérée"
01:33:22.430                             : :14 - 01:33:22 - fr:Le combat contre la Starforce
01:40:51.795                             : :15 - 01:40:51 - fr:L'offensive de Ronan
01:46:25.087                             : :16 - 01:46:25 - fr:Prendre l'initiative
01:52:49.888                             : :17 - 01:52:49 - fr:Générique de fin
01:54:57.640                             : :18 - 01:54:57 - fr:Bonus 1
01:56:00.100                             : :19 - 01:56:00 - fr:Générique Suite
02:02:52.360                             : :20 - 02:02:52 - fr:Bonus 2


Facebook Twitter Digg Reddit LinkedIn StumbleUpon Email
Show Demonoid some love with BitCoin: 1DNoidyJgB159bLJT5hDnCkZ4uQrhkfBVk How to get BitCoins?
Peers: 1 seeders, 2 leechers, 48 total - Updated: 150 hours 36 minutes 47 seconds ago
Size: 4.40 GB  

Sponsored links
Related torrents
Torrents you may also like:
Download this torrent
Extra information
Tracker: udp://tracker.opentrackr.org:1337/announce
Torrent hash: 4AE82DAA AA6F632A D48045B1 5927AD53 E099CCA4
Files described inside the torrent: 18 [ Click here to show the full list ]
Comments
No comments posted yet

Disclaimer: None of the files shown here are actually hosted or transmitted by this server. The links are provided solely by this site's users. The site moderation is also a service provided by the site's users. The administrator of this site (demonoid.is) cannot be held responsible for what its users post, or any other actions of its users. You may not use this site to distribute or download any material when you do not have the legal rights to do so. It is your own responsibility to adhere to these terms.

By using this site you indicate your agreement to our terms and conditions
   
Link to us | Contact us | API | Feeds/RSS | DMCA
This site and the Demonoid logo are Copyright © Demonoid. All rights reserved.

Show Demonoid some love with 1DNoidyJgB159bLJT5hDnCkZ4uQrhkfBVk