User log in
User registration
Registrations are open
Click here to register
Email: forgotten email?
Password: lost pass?
  Resend activation email
Get VPN Now for FREE! Get VPN Now for FREE! Get VPN Now for FREE! Get VPN Now for FREE! Get VPN Now for FREE! Get VPN Now for FREE! Get VPN Now for FREE! Protect your privacy! Use a VPN When Downloading Torrents
Your IP Address is . Location is .
Your Internet Provider is tracking your torrent activity! Hide your IP ADDRESS with a VPN!
We strongly recommend using Trust.Zone VPN to anonymize your torrenting. It's FREE!
Autumn deal! 75% off! Also, while you are using Twcadc6arusa2b0eb9t.sd8cc83Zone VPN you get No Ads for Demonoid members Get a2b0eb9VPN Na2b0eb9ow for FREzaeb171Ej0ea19a!
Details for Faithless - Live at Alexander Palace (2005) DVDRip 576p .x264 DTS 5.1 [djdezzie]
Created by Ratio: 1.00djdezzie 20 days ago
Music Videos : Other : DVD Quality


Artist: Faithless
Title:  Live at Alexander Palace
Year Of Release: 2005
Label: Sony, BMG, Cheeky Records
Genre: House
Audio: Dolby Digital Theater Systems 6ch 24bit 768 kb/s
Video: 1,471 kb/s x246 mp4
Total Time: 01:35:15
Total Size: 1.52 GB

Contains heavy strobing throughout.







General
Complete name                            : E:\Faithless Live at Alexander Palace (2005) DVDRip .x264 DTS 5.1\Faithless - Live at Alexander Palace (2005).mp4
Format                                   : MPEG-4
Format profile                           : Base Media / Version 2
Codec ID                                 : mp42 (mp42/isom/avc1)
File size                                : 1.48 GiB
Duration                                 : 1 h 35 min
Overall bit rate mode                    : Variable
Overall bit rate                         : 2 227 kb/s
Movie name                               : Faithless - Live at Alexander Palace (2005)
Encoded date                             : UTC 2021-09-30 05:48:00
Tagged date                              : UTC 2021-09-30 05:49:44
Writing application                      : DVDFab 12.0.4.9
Cover                                    : Yes

Video
ID                                       : 1
Format                                   : AVC
Format/Info                              : Advanced Video Codec
Format profile                           : [email protected]
Format settings                          : CABAC / 3 Ref Frames
Format settings, CABAC                   : Yes
Format settings, Reference frames        : 3 frames
Format settings, GOP                     : M=1, N=25
Codec ID                                 : avc1
Codec ID/Info                            : Advanced Video Coding
Duration                                 : 1 h 35 min
Bit rate mode                            : Variable
Bit rate                                 : 1 471 kb/s
Maximum bit rate                         : 1 844 kb/s
Width                                    : 1 024 pixels
Height                                   : 576 pixels
Display aspect ratio                     : 16:9
Frame rate mode                          : Constant
Frame rate                               : 25.000 FPS
Color space                              : YUV
Chroma subsampling                       : 4:2:0
Bit depth                                : 8 bits
Scan type                                : Progressive
Bits/(Pixel*Frame)                       : 0.100
Stream size                              : 1 002 MiB (66%)
Encoded date                             : UTC 2021-09-30 05:48:00
Tagged date                              : UTC 2021-09-30 05:49:43
Color range                              : Limited
Color primaries                          : BT.601 NTSC
colour_primaries_Original                : BT.709
Transfer characteristics                 : BT.709
Matrix coefficients                      : BT.601
matrix_coefficients_Original             : BT.709
Menus                                    : 3
Codec configuration box                  : avcC

Audio
ID                                       : 2
Format                                   : DTS
Format/Info                              : Digital Theater Systems
Codec ID                                 : dtsc
Codec ID/Info                            : Digital Theater Systems
Duration                                 : 1 h 35 min
Bit rate mode                            : Constant
Bit rate                                 : 768 kb/s
Sampling rate                            : 48.0 kHz
Stream size                              : 514 MiB (34%)
Title                                    : English (dts 5.1)
Language                                 : English
Default                                  : Yes
Alternate group                          : 1
Encoded date                             : UTC 2021-09-30 05:48:00
Tagged date                              : UTC 2021-09-30 05:49:39

Facebook Twitter Digg Reddit LinkedIn StumbleUpon Email
Show Demonoid some love with BitCoin: 1DNoidyJgB159bLJT5hDnCkZ4uQrhkfBVk How to get BitCoins?
Peers: 2 seeders, 1 leechers, 83 total - Updated: 8 days ago [ Update now ]
Size: 1.53 GB  

Sponsored links
Related torrents
Torrents you may also like:
Download this torrent
Extra information
Tracker: udp://tracker.tiny-vps.com:6969/announce
Torrent hash: BBF676DC 6BE80558 2D4DF46C A30C482B B57E9611
Files described inside the torrent: 13 [ Click here to show the full list ]
Comments
No comments posted yet

Disclaimer: None of the files shown here are actually hosted or transmitted by this server. The links are provided solely by this site's users. The site moderation is also a service provided by the site's users. The administrator of this site (demonoid.is) cannot be held responsible for what its users post, or any other actions of its users. You may not use this site to distribute or download any material when you do not have the legal rights to do so. It is your own responsibility to adhere to these terms.

By using this site you indicate your agreement to our terms and conditions
   
Link to us | Contact us | API | Commemoration | Feeds/RSS | DMCA
This site and the Demonoid logo are Copyright © Demonoid. All rights reserved.

Show Demonoid some love with 1DNoidyJgB159bLJT5hDnCkZ4uQrhkfBVk