Please help the site by white listing it in your Ad-Blocker.

User log in
User registration
Registrations are open
Click here to register
Email: forgotten email?
Password: lost pass?
  Resend activation email
Get VPN Now for FREE! Get VPN Now for FREE! Get VPN Now for FREE! Get VPN Now for FREE! Get VPN Now for FREE! Protect your privacy! Use a VPN When Downloading Torrents
Your IP Address is . Location is .
Your Internet Provider is tracking your torrent activity! Hide your IP ADDRESS with a VPN!
We strongly recommend using Trust Zone VPN to anonymize your torrenting. It's FREE!
Also, while you are using Tzd6fce0rusja13cbbt w988561Zone VPN you get No Ads on Demonoid site Get ja13cbbVPN Nja13cbbow!
Details for Shang-Chi And The Legend Of The Ten Rings 2021 x264 720p BluRay Esub AAC English Hindi Telugu Tamil Thai Malayalam THE GOPI SAHI
Created by Ratio: 1.00gopisahi 9 months ago 0   0
Movies : Action : HD 720p : Hindi
Join Us On TeleGram

https://t.me/joinchat/A6E91VCaHNo1Mjll

3086e9a4040cae944c5d1a7ece97eca3.md.jpg

Shang-Chi And The Legend Of The Ten Rings 2021 x264 720p BluRay Esub AAC English Hindi Telugu Tamil Thai Malayalam THE GOPI SAHI

Format : Matroska
Format version : Version 4
File size : 1.37 GiB
Duration : 2 h 12 min
Overall bit rate : 1 484 kb/s
Movie name : Shang-Chi And The Legend Of The Ten Rings 2021 BluRay GOPI SAHI
Encoded date : UTC 2021-11-12 12:38:53

Video
ID : 1
Format : AVC
Format/Info : Advanced Video Codec
Format profile : [email protected]
Format settings : CABAC / 12 Ref Frames
Format settings, CABAC : Yes
Format settings, Reference fra : 12 frames
Codec ID : V_MPEG4/ISO/AVC
Duration : 2 h 12 min
Bit rate : 899 kb/s
Width : 1 280 pixels
Height : 534 pixels
Display aspect ratio : 2.40:1
Frame rate mode : Constant
Frame rate : 23.976 (24000/1001) FPS
Color space : YUV
Chroma subsampling : 4:2:0
Bit depth : 8 bits
Scan type : Progressive
Bits/(Pixel*Frame) : 0.055
Stream size : 851 MiB (61%)
Title : GOPI SAHI
Writing library : x264 core 163 r3059 b684ebe0

Audio #1
ID : 2
Format : AAC LC
Format/Info : Advanced Audio Codec Low Complexity
Codec ID : A_AAC-2
Duration : 2 h 12 min
Bit rate : 192 kb/s
Channel(s) : 6 channels
Channel layout : C L R Ls Rs LFE
Sampling rate : 48.0 kHz
Frame rate : 46.875 FPS (1024 SPF)
Compression mode : Lossy
Delay relative to video : -21 ms
Stream size : 182 MiB (13%)
Title : GOPI SAHI
Language : Hindi
Default : No
Forced : No

Audio #2
ID : 3
Format : AAC LC
Format/Info : Advanced Audio Codec Low Complexity
Codec ID : A_AAC-2
Duration : 2 h 12 min
Bit rate : 64.4 kb/s
Channel(s) : 2 channels
Channel layout : L R
Sampling rate : 48.0 kHz
Frame rate : 46.875 FPS (1024 SPF)
Compression mode : Lossy
Delay relative to video : -21 ms
Stream size : 60.9 MiB (4%)
Title : GOPI SAHI
Language : Telugu
Default : No
Forced : No

Audio #3
ID : 4
Format : AAC LC
Format/Info : Advanced Audio Codec Low Complexity
Codec ID : A_AAC-2
Duration : 2 h 12 min
Bit rate : 64.4 kb/s
Channel(s) : 2 channels
Channel layout : L R
Sampling rate : 48.0 kHz
Frame rate : 46.875 FPS (1024 SPF)
Compression mode : Lossy
Delay relative to video : -21 ms
Stream size : 61.0 MiB (4%)
Title : GOPI SAHI
Language : Kannada
Default : No
Forced : No

Audio #4
ID : 5
Format : AAC LC
Format/Info : Advanced Audio Codec Low Complexity
Codec ID : A_AAC-2
Duration : 2 h 12 min
Bit rate : 64.4 kb/s
Channel(s) : 2 channels
Channel layout : L R
Sampling rate : 48.0 kHz
Frame rate : 46.875 FPS (1024 SPF)
Compression mode : Lossy
Delay relative to video : -21 ms
Stream size : 60.9 MiB (4%)
Title : GOPI SAHI
Language : Thai
Default : No
Forced : No

Audio #5
ID : 6
Format : AAC LC
Format/Info : Advanced Audio Codec Low Complexity
Codec ID : A_AAC-2
Duration : 2 h 12 min
Bit rate : 64.4 kb/s
Channel(s) : 2 channels
Channel layout : L R
Sampling rate : 48.0 kHz
Frame rate : 46.875 FPS (1024 SPF)
Compression mode : Lossy
Delay relative to video : -21 ms
Stream size : 60.9 MiB (4%)
Title : GOPI SAHI
Language : Tamil
Default : No
Forced : No

Audio #6
ID : 7
Format : AAC LC
Format/Info : Advanced Audio Codec Low Complexity
Codec ID : A_AAC-2
Duration : 2 h 12 min
Bit rate : 64.4 kb/s
Channel(s) : 2 channels
Channel layout : L R
Sampling rate : 48.0 kHz
Frame rate : 46.875 FPS (1024 SPF)
Compression mode : Lossy
Delay relative to video : -21 ms
Stream size : 61.0 MiB (4%)
Title : GOPI SAHI
Language : Malayalam
Default : No
Forced : No

Audio #7
ID : 8
Format : AAC LC
Format/Info : Advanced Audio Codec Low Complexity
Codec ID : A_AAC-2
Duration : 2 h 12 min
Bit rate : 64.4 kb/s
Channel(s) : 2 channels
Channel layout : L R
Sampling rate : 48.0 kHz
Frame rate : 46.875 FPS (1024 SPF)
Compression mode : Lossy
Delay relative to video : -21 ms
Stream size : 61.0 MiB (4%)
Title : GOPI SAHI
Language : Indonesian
Default : No
Forced : No

Text
ID : 9
Language : English

8ba866e656d0793da619939278bf13b6.md.jpg

759fa06e488ea4dcafc378dbb0795ee0.md.jpg

bb9ca0ef860ffa2282171900ae5a27dc.md.jpg

a152d5550ebada2316b80b01fe9388a6.md.jpg
Facebook Twitter Digg Reddit LinkedIn StumbleUpon Email
Show Demonoid some love with BitCoin: 1DNoidyJgB159bLJT5hDnCkZ4uQrhkfBVk How to get BitCoins?
Peers: 2 seeders, 1 leechers, 1401 total - Updated: 430 hours 3 minutes 1 second ago
Size: 1.37 GB  

Sponsored links
Related torrents
Torrents you may also like:
Download this torrent
Extra information
Tracker: udp://p4p.arenabg.com:1337/announce
Torrent hash: 266CD008 AF681F17 59B0AA98 699038E8 54A83B53
Files described inside the torrent: 1 [ Click here to show the full list ]
Comments
No comments posted yet

Disclaimer: None of the files shown here are actually hosted or transmitted by this server. The links are provided solely by this site's users. The site moderation is also a service provided by the site's users. The administrator of this site (demonoid.is) cannot be held responsible for what its users post, or any other actions of its users. You may not use this site to distribute or download any material when you do not have the legal rights to do so. It is your own responsibility to adhere to these terms.

By using this site you indicate your agreement to our terms and conditions
   
Link to us | Contact us | API | Feeds/RSS | DMCA
This site and the Demonoid logo are Copyright © Demonoid. All rights reserved.

Show Demonoid some love with 1DNoidyJgB159bLJT5hDnCkZ4uQrhkfBVk