User log in
User registration
Registrations are closed. If you have an invitation code, click here.
Email: forgotten email?
Password: lost pass?
  Resend activation email
Get VPN Now for FREE! Get VPN Now for FREE! Get VPN Now for FREE! Get VPN Now for FREE! Get VPN Now for FREE! Get VPN Now for FREE! Protect your privacy! Use a VPN When Downloading Torrents
Your IP Address is . Location is .
Your Internet Provider is tracking your torrent activity! Hide your IP ADDRESS with a VPN!
We strongly recommend using Trust.Zone VPN to anonymize your torrenting. It's FREE!
Also, while you are using Ta338a1crusuadc69ct.l18ef49Zone VPN you get No Ads for Demonoid members Get uadc69cVPN Nuadc69cow for FRElade4ebEl91d72f!
Details for MasterChef The Professionals (UK) S14E11 (1280x720p HD, 50fps, soft Eng subs)
Created by Ratio: 4.64ElsonRoa 12 days ago
TV : Reality : HD 720p : English
MasterChef The Professionals (UK) S14E11 (1280x720p HD, 50fps, soft Eng subs)

Heat six opens with four more professional chefs from around the country facing the infamous Skills Test under the watchful eyes of judges Monica Galetti, Marcus Wareing and Gregg Wallace.  /  / The first test is set by Marcus. Two of the chefs must prepare and cook sea bream served with couscous and a red pepper mayonnaise. The other two take on Monica's test. They need to prepare crepes served with a chocolate hazelnut spread, berries and chantilly. With just 20 minutes to complete their tasks, they need to work quickly while executing the dishes perfectly. /  / Then they return to the kitchen to cook their Signature Dishes. They have one hour and 30 minutes to prepare a main and a dessert that demonstrate both technical ability and ambition. This is their chance to rectify any mistakes made in the Skills Test and showcase delicious flavours before the judges decide who will be sent home and who will make it through to this week's quarter-final.

First broadcast:  25 November 2021
Duration:  1 hour

Torrent dead? Request reseed at torrentgalaxy.org - or ask at elsonroa at tutanota.com

Media info:-
General
Format : MPEG-4
Format profile : Base Media
Codec ID : isom (isom/iso2/avc1/mp41)
File size : 2.03 GiB
Duration : 58mn 16s
Overall bit rate : 4 993 Kbps


Video
ID : 1
Format : AVC
Format/Info : Advanced Video Codec
Format profile : [email protected]
Format settings, CABAC : Yes
Format settings, ReFrames : 4 frames
Codec ID : avc1
Codec ID/Info : Advanced Video Coding
Duration : 58mn 16s
Bit rate : 4 857 Kbps
Width : 1 280 pixels
Height : 720 pixels
Display aspect ratio : 16:9
Frame rate mode : Constant
Frame rate : 50.000 fps
Color space : YUV
Chroma subsampling : 4:2:0
Bit depth : 8 bits
Scan type : Progressive
Bits/(Pixel*Frame) : 0.105
Stream size : 1.98 GiB (97%)
Encoded date : UTC 1904-01-01 00:00:00
Tagged date : UTC 1904-01-01 00:00:00
Color range : Limited
Color primaries : BT.709
Transfer characteristics : BT.709
Matrix coefficients : BT.709

Audio
ID : 2
Format : AAC
Format/Info : Advanced Audio Codec
Format profile : LC
Codec ID : 40
Duration : 58mn 16s
Bit rate mode : Constant
Bit rate : 128 Kbps
Channel(s) : 2 channels
Channel positions : Front: L R
Sampling rate : 48.0 KHz
Frame rate : 46.875 fps (1024 spf)
Compression mode : Lossy
Stream size : 53.3 MiB (3%)
Language : English

Facebook Twitter Digg Reddit LinkedIn StumbleUpon Email
Show Demonoid some love with BitCoin: 1DNoidyJgB159bLJT5hDnCkZ4uQrhkfBVk How to get BitCoins?
Peers: 11 seeders, 2 leechers, 268 total - Updated: 14 hours ago
Size: 2.03 GB  

Sponsored links
Related torrents
Torrents you may also like:
Download this torrent
Extra information
Tracker: udp://tracker.tiny-vps.com:6969/announce
Torrent hash: AEC85CCD F12F4B76 42A77EC4 E01A197A DDE62A7E
Files described inside the torrent: 6 [ Click here to show the full list ]
Comments
No comments posted yet

Disclaimer: None of the files shown here are actually hosted or transmitted by this server. The links are provided solely by this site's users. The site moderation is also a service provided by the site's users. The administrator of this site (demonoid.is) cannot be held responsible for what its users post, or any other actions of its users. You may not use this site to distribute or download any material when you do not have the legal rights to do so. It is your own responsibility to adhere to these terms.

By using this site you indicate your agreement to our terms and conditions
   
Link to us | Contact us | API | Commemoration | Feeds/RSS | DMCA
This site and the Demonoid logo are Copyright © Demonoid. All rights reserved.

Show Demonoid some love with 1DNoidyJgB159bLJT5hDnCkZ4uQrhkfBVk