User log in
User registration
Registrations are open
Click here to register
Email: forgotten email?
Password: lost pass?
  Resend activation email
Get VPN Now for FREE! Get VPN Now for FREE! Get VPN Now for FREE! Get VPN Now for FREE! Get VPN Now for FREE! Protect your privacy! Use a VPN When Downloading Torrents
Your IP Address is . Location is .
Your Internet Provider is tracking your torrent activity! Hide your IP ADDRESS with a VPN!
We strongly recommend using Trust.Zone VPN to anonymize your torrenting. It's FREE!
Also, while you are using Tee7fff0rusbe75189t.w27468dZone VPN you get No Ads for Demonoid members Get be75189VPN Nbe75189ow for FREk8bc311Eyabc827!
Details for Santana - Hymns For Peace Live At Montreux 2004(2хDVD) PAL
Created by Ratio: 4.27mickjapa108 1 month ago
Music Videos : Blues : DVD Quality
Santana - Hymns For Peace Live At Montreux 2004(2хDVD) PAL





General
Complete name : D:\Music\Video\Santana - Hymns For Peace Live At Montreux 2004(2хDVD) PAL\DVD 1\VIDEO_TS\VTS_01_1.VOB
Format : MPEG-PS
File size : 10.7 GB
Duration : 183 min
Overall bit rate mode : Variable
Overall bit rate : 7 947 kb/s

Video
ID : 224 (0xE0)
Format : MPEG Video
Format version : Version 2
Format profile : [email protected]
Format settings : BVOP
Format settings, BVOP : Yes
Format settings, Matrix : Default
Format settings, GOP : M=3, N=13
Format settings, picture structure : Frame
Duration : 183 min
Bit rate mode : Variable
Bit rate : 4 986 kb/s
Maximum bit rate : 6 900 kb/s
Width : 720 pixels
Height : 576 pixels
Display aspect ratio : 2.40:1
Frame rate : 25.000 FPS
Standard : PAL
Color space : YUV
Chroma subsampling : 4:2:0
Bit depth : 8 bits
Scan type : Interlaced
Scan order : Top Field First
Compression mode : Lossy
Bits/(Pixel*Frame) : 0.481
Time code of first frame : 10:00:00:00
Time code source : Group of pictures header
GOP, Open/Closed : Open
Stream size : 643 MiB (63%)
Color primaries : BT.601 PAL
Transfer characteristics : BT.470 System B/G
Matrix coefficients : BT.470 System B/G

Audio #1
ID : 189 (0xBD)-129 (0x81)
Format : AC-3
Format/Info : Audio Coding 3
Commercial name : Dolby Digital
Muxing mode : DVD-Video
Duration : 18 min 0 s
Bit rate mode : Constant
Bit rate : 512 kb/s
Channel(s) : 6 channels
Channel layout : L R C LFE Ls Rs
Sampling rate : 48.0 kHz
Frame rate : 31.250 FPS (1536 SPF)
Compression mode : Lossy
Stream size : 66.0 MiB (6%)
Service kind : Complete Main

Audio #2
ID : 189 (0xBD)-138 (0x8A)
Format : DTS
Format/Info : Digital Theater Systems
Muxing mode : DVD-Video
Duration : 18 min 0 s
Bit rate mode : Constant
Bit rate : 755 kb/s
Channel(s) : 6 channels
Channel layout : C L R Ls Rs LFE
Sampling rate : 48.0 kHz
Frame rate : 93.750 FPS (512 SPF)
Bit depth : 24 bits
Compression mode : Lossy
Stream size : 97.2 MiB (9%)

Audio #3
ID : 189 (0xBD)-160 (0xA0)
Format : PCM
Format settings : Big / Signed
Muxing mode : DVD-Video
Duration : 18 min 0 s
Bit rate mode : Constant
Bit rate : 1 536 kb/s
Channel(s) : 2 channels
Sampling rate : 48.0 kHz
Bit depth : 16 bits
Stream size : 198 MiB (19%)




The hardest thing to give away is Love
When you give Love
It just keeps coming back to you

Spread The Love SEED
"When the power of love overcomes the love of power, the world will know peace" ~Jimi Hendrix, 1969
Facebook Twitter Digg Reddit LinkedIn StumbleUpon Email
Show Demonoid some love with BitCoin: 1DNoidyJgB159bLJT5hDnCkZ4uQrhkfBVk How to get BitCoins?
Peers: 9 seeders, 0 leechers, 126 total - Updated: 2 hours 47 minutes 20 seconds ago
Size: 10.73 GB  

Sponsored links
Related torrents
Torrents you may also like:
Download this torrent
Extra information
Tracker: udp://inferno.demonoid.is:3391/announce
Torrent hash: 443E1F37 B6F19F78 75FEB2ED 84C54551 293F0C1E
Files described inside the torrent: 44 [ Click here to show the full list ]
Comments
<< Prev        Next >>
| 1 - 2 | 2 items total
Posted by Ratio: 4.27mickjapa108 1 month ago [ Complain ] [ Send PM ]
May need a little help seeding this one friends.
Its worth it.
Posted by Ratio: 1.00jordan69s 16 days ago [ Complain ] [ Send PM ]
Thank you for the upload! I will help you seed this...

Namaste,

Jordan
| 1 - 2 | 2 items total
<< Prev        Next >>

Disclaimer: None of the files shown here are actually hosted or transmitted by this server. The links are provided solely by this site's users. The site moderation is also a service provided by the site's users. The administrator of this site (demonoid.is) cannot be held responsible for what its users post, or any other actions of its users. You may not use this site to distribute or download any material when you do not have the legal rights to do so. It is your own responsibility to adhere to these terms.

By using this site you indicate your agreement to our terms and conditions
   
Link to us | Contact us | API | Commemoration | Feeds/RSS | DMCA
This site and the Demonoid logo are Copyright © Demonoid. All rights reserved.

Show Demonoid some love with 1DNoidyJgB159bLJT5hDnCkZ4uQrhkfBVk