User log in
User registration
Registrations are open
Click here to register
Email: forgotten email?
Password: lost pass?
  Resend activation email
Get VPN Now for FREE! Get VPN Now for FREE! Get VPN Now for FREE! Get VPN Now for FREE! Get VPN Now for FREE! Get VPN Now for FREE! Get VPN Now for FREE! Protect your privacy! Use a VPN When Downloading Torrents
Your IP Address is . Location is .
Your Internet Provider is tracking your torrent activity! Hide your IP ADDRESS with a VPN!
We strongly recommend using Trust.Zone VPN to anonymize your torrenting!
Also, while you are using Tra8ec1d3ust.w5e2281Zone VPN you get No Ads on Demonoid site Get w5e2281VPN Nw5e2281ow!
Details for The.Secret.Life.Of.Walter.Mitty - I.Sogni.Segreti.Di.Walter.Mitty.2013.iTA.ENG.AC3.SUB.iTA.ENG.BluRay.HEVC.1080p.x265.jeddak-MIRCrew
Created by Ratio: 1.00jeddak 8 months ago 0   0
Movies : Adventure : HEVC / x265 : English
Jeddak-Presenta.png

I-Sogni-Segreti-Di-Walter-Mitty.png

Titolo.png
I Sogni Segreti Di Walter Mitty

Scheda.png
Titolo originale: The Secret Life Of Walter Mitty
Genere: Avventura, Commedia, Drammatico
Anno: 2013
Regia: Ben Stiller
Attori: Ben Stiller, Kristen Wiig, Sean Penn, Adam Scott, Kathryn Hahn, Shirley MacLaine, Patton Oswalt, Terence Bernie Hines, Adrian Martinez, Kelly Southerland
Paese: USA
Durata: 114 min
Distribuzione: 20th Century Fox
Sceneggiatura: Steve Conrad
Fotografia: Stuart Dryburgh
Montaggio: Greg Hayden
Musiche: Theodore Shapiro
Produzione: Red House Entertainment, Twentieth Century Fox Film Corporation


Trama.png
I sogni segreti di Walter Mitty è un film del 2013 diretto e interpretato da Ben Stiller. Walter Mitty (Ben Stiller) è un gestore di negativi della rivista Life. Sogna avventure ad occhi aperti, ha una cotta per la sua collega Cheryl Melhoff (Kristen Wiig) e lavora con un fotoreporter di nome Sean O'Connell (Sean Penn), un uomo misterioso le cui foto sono molto apprezzate. O'Connell ha inviato a Mitty i suoi ultimi negativi e ritiene che il numero 25 in particolare, catturi la "quint'essenza della vita" e che dovrebbe essere usato per la copertina dell'edizione finale della rivista prima che si converta all'online. Tuttavia, quel negativo manca all'appello e capendo che il suo licenziamento è vicino, a causa del ridimensionamento del personale dovuto al passaggio al digitale, Mitty cerca di contattare O'Connell, che pero' risulta irrintracciabile. Cheryl suggerisce a Mitty di ragionare sui vecchi negativi e di utilizzarli come indizi per scoprire posizione di Sean.
Ne osservano tre e una di queste foto ritrae una nave. Tutto porta Mitty a pensare che O'Connell sia in Groenlandia, dove si dirige per riuscire a trovarlo. Giunto a destinazione, un barista di Nuuk spiega che O'Connell è partito su una nave e che per trovarlo, Mitty deve salire sull'elicottero postale, anche se il pilota è completamente ubriaco. Dopo uno dei suoi soliti viaggi mentali, Mitty acquisisce sicurezza e si imbarca sul velivolo. Ma presto scopre che l'elicottero non può atterrare sulla nave, ed è costretto calarsi con una serie di pericolose acrobazie. Tuttavia, O'Connell ha già lasciato l'imbarcazione. L'equipaggio gli offre la torta di clementine che O'Connell ha lasciato a bordo, sul cui imballaggio è segnata la nuova destinazione del fotografo. L'itinerario porta Mitty in Islanda, dove O'Connell fotografa il vulcano Eyjafjallajökull in eruzione. Le avventure di Mitty alla ricerca del suo collega continueranno senza sosta, catapultandolo in una serie di esperienze incredibili che finiranno per cambiagli la vita...


Nr4Nio9.png [www.imdb.com]

Trailer.png
H13txCA.png [youtu.be]

Screenshots.png
I-Sogni-Segreti-Di-Walter-Mitty-1.png [postimg.cc]

I-Sogni-Segreti-Di-Walter-Mitty-2.png [postimg.cc]

I-Sogni-Segreti-Di-Walter-Mitty-3.png [postimg.cc]

I-Sogni-Segreti-Di-Walter-Mitty-4.png [postimg.cc]

I-Sogni-Segreti-Di-Walter-Mitty-5.png [postimg.cc]

I-Sogni-Segreti-Di-Walter-Mitty-6.png [postimg.cc]

Dati-File.png
General
Unique ID : 202019766614558462299844152983568984024 (0x97FB977F6CF228A4BFDF6EE9A64327D8)
Complete name : I.Sogni.Segreti.Di.Walter.Mitty.2013.iTA.ENG.AC3.SUB.iTA.ENG.BluRay.HEVC.1080p.x265.jeddak-MIRCrew.mkv
Format : Matroska
Format version : Version 2
File size : 2.43 GiB
Duration : 1 h 54 min
Overall bit rate : 3 040 kb/s
Movie name : I.Sogni.Segreti.Di.Walter.Mitty.2013.iTA.ENG.AC3.SUB.iTA.ENG.BluRay.HEVC.1080p.x265.jeddak-MIRCrew
Encoded date : UTC 2022-02-16 20:16:20
Writing application : mkvmerge v5.6.0 ('Kenya Kane') built on May 27 2012 16:44:04
Writing library : libebml v1.2.3 + libmatroska v1.3.0 / Lavf58.76.100

Video
ID : 1
Format : HEVC
Format/Info : High Efficiency Video Coding
Format profile : [email protected]@Main
Codec ID : V_MPEGH/ISO/HEVC
Duration : 1 h 54 min
Bit rate : 2 083 kb/s
Width : 1 920 pixels
Height : 800 pixels
Display aspect ratio : 2.40:1
Frame rate mode : Constant
Frame rate : 23.976 (24000/1001) FPS
Color space : YUV
Chroma subsampling : 4:2:0
Bit depth : 8 bits
Bits/(Pixel*Frame) : 0.057
Stream size : 1.67 GiB (69%)
Title : ...::: jeddak MIRCrew :::...
Writing library : x265 3.5+1-f0c1022b6:[Linux][GCC 9.3.0][64 bit] 8bit+10bit+12bit
Encoding settings : cpuid=1111039 / frame-threads=5 / wpp / no-pmode / no-pme / no-psnr / no-ssim / log-level=2 / input-csp=1 / input-res=1920x800 / interlace=0 / total-frames=0 / level-idc=40 / high-tier=1 / uhd-bd=0 / ref=3 / no-allow-non-conformance / no-repeat-headers / annexb / no-aud / no-hrd / info / hash=0 / no-temporal-layers / open-gop / min-keyint=24 / keyint=240 / gop-lookahead=0 / bframes=4 / b-adapt=2 / b-pyramid / bframe-bias=0 / rc-lookahead=20 / lookahead-slices=5 / scenecut=40 / hist-scenecut=0 / radl=0 / no-splice / no-intra-refresh / ctu=64 / min-cu-size=8 / no-rect / no-amp / max-tu-size=32 / tu-inter-depth=1 / tu-intra-depth=1 / limit-tu=0 / rdoq-level=0 / dynamic-rd=0.00 / no-ssim-rd / signhide / no-tskip / nr-intra=0 / nr-inter=0 / no-constrained-intra / strong-intra-smoothing / max-merge=3 / limit-refs=1 / no-limit-modes / me=1 / subme=2 / merange=57 / temporal-mvp / no-frame-dup / no-hme / weightp / no-weightb / no-analyze-src-pics / deblock=0:0 / sao / no-sao-non-deblock / rd=3 / selective-sao=4 / early-skip / rskip / no-fast-intra / no-tskip-fast / no-cu-lossless / b-intra / no-splitrd-skip / rdpenalty=0 / psy-rd=2.00 / psy-rdoq=0.00 / no-rd-refine / no-lossless / cbqpoffs=0 / crqpoffs=0 / rc=abr / bitrate=2100 / qcomp=0.60 / qpstep=4 / stats-write=0 / stats-read=0 / ipratio=1.40 / pbratio=1.30 / aq-mode=2 / aq-strength=1.00 / cutree / zone-count=0 / no-strict-cbr / qg-size=32 / no-rc-grain / qpmax=69 / qpmin=0 / no-const-vbv / sar=1 / overscan=0 / videoformat=5 / range=0 / colorprim=1 / transfer=1 / colormatrix=1 / chromaloc=0 / display-window=0 / cll=0,0 / min-luma=0 / max-luma=255 / log2-max-poc-lsb=8 / vui-timing-info / vui-hrd-info / slices=1 / no-opt-qp-pps / no-opt-ref-list-length-pps / no-multi-pass-opt-rps / scenecut-bias=0.05 / hist-threshold=0.03 / no-opt-cu-delta-qp / no-aq-motion / no-hdr10 / no-hdr10-opt / no-dhdr10-opt / no-idr-recovery-sei / analysis-reuse-level=0 / analysis-save-reuse-level=0 / analysis-load-reuse-level=0 / scale-factor=0 / refine-intra=0 / refine-inter=0 / refine-mv=1 / refine-ctu-distortion=0 / no-limit-sao / ctu-info=0 / no-lowpass-dct / refine-analysis-type=0 / copy-pic=1 / max-ausize-factor=1.0 / no-dynamic-refine / no-single-sei / no-hevc-aq / no-svt / no-field / qp-adaptation-range=1.00 / scenecut-aware-qp=0conformance-window-offsets / right=0 / bottom=0 / decoder-max-rate=0 / no-vbv-live-multi-pass
Default : Yes
Forced : No
Color range : Limited
Color primaries : BT.709
Transfer characteristics : BT.709
Matrix coefficients : BT.709
Duration_Source : General_Duration

Audio #1
ID : 2
Format : AC-3
Format/Info : Audio Coding 3
Commercial name : Dolby Digital
Codec ID : A_AC3
Duration : 1 h 54 min
Bit rate mode : Constant
Bit rate : 448 kb/s
Channel(s) : 6 channels
Channel layout : L R C LFE Ls Rs
Sampling rate : 48.0 kHz
Frame rate : 31.250 FPS (1536 SPF)
Compression mode : Lossy
Delay relative to video : -5 ms
Stream size : 367 MiB (15%)
Title : iTA AC3 5.1
Language : Italian
Service kind : Complete Main
Default : Yes
Forced : No

Audio #2
ID : 3
Format : AC-3
Format/Info : Audio Coding 3
Commercial name : Dolby Digital
Codec ID : A_AC3
Duration : 1 h 54 min
Bit rate mode : Constant
Bit rate : 448 kb/s
Channel(s) : 6 channels
Channel layout : L R C LFE Ls Rs
Sampling rate : 48.0 kHz
Frame rate : 31.250 FPS (1536 SPF)
Compression mode : Lossy
Delay relative to video : -5 ms
Stream size : 367 MiB (15%)
Title : ENG AC3 5.1
Language : English
Service kind : Complete Main
Default : No
Forced : No

Text #1
ID : 4
Format : UTF-8
Codec ID : S_TEXT/UTF8
Codec ID/Info : UTF-8 Plain Text
Title : iTA FORCED - SRT
Language : Italian
Default : No
Forced : Yes

Text #2
ID : 5
Format : PGS
Codec ID : S_HDMV/PGS
Codec ID/Info : Picture based subtitle format used on BDs/HD-DVDs
Duration : 1 h 54 min
Title : iTA FORCED - PGS
Language : Italian
Default : Yes
Forced : Yes

Text #3
ID : 6
Format : PGS
Codec ID : S_HDMV/PGS
Codec ID/Info : Picture based subtitle format used on BDs/HD-DVDs
Duration : 1 h 54 min
Title : iTA REGULAR - PGS
Language : Italian
Default : No
Forced : No

Text #4
ID : 7
Format : PGS
Codec ID : S_HDMV/PGS
Codec ID/Info : Picture based subtitle format used on BDs/HD-DVDs
Duration : 1 h 44 min
Title : ENG REGULAR - PGS
Language : English
Default : No
Forced : No

Menu
00:00:00.000 : :Capitolo 01
00:02:51.004 : :Capitolo 02
00:05:39.756 : :Capitolo 03
00:08:33.972 : :Capitolo 04
00:10:54.571 : :Capitolo 05
00:13:52.248 : :Capitolo 06
00:17:48.234 : :Capitolo 07
00:20:39.655 : :Capitolo 08
00:23:33.245 : :Capitolo 09
00:26:31.381 : :Capitolo 10
00:30:08.265 : :Capitolo 11
00:32:19.521 : :Capitolo 12
00:35:01.057 : :Capitolo 13
00:38:18.838 : :Capitolo 14
00:40:31.846 : :Capitolo 15
00:44:51.480 : :Capitolo 16
00:48:13.891 : :Capitolo 17
00:51:29.670 : :Capitolo 18
00:54:36.273 : :Capitolo 19
00:57:28.403 : :Capitolo 20
01:00:02.140 : :Capitolo 21
01:03:10.620 : :Capitolo 22
01:05:28.383 : :Capitolo 23
01:09:27.288 : :Capitolo 24
01:11:23.029 : :Capitolo 25
01:14:06.651 : :Capitolo 26
01:18:31.749 : :Capitolo 27
01:22:50.883 : :Capitolo 28
01:28:52.536 : :Capitolo 29
01:30:24.461 : :Capitolo 30
01:33:54.671 : :Capitolo 31
01:35:39.484 : :Capitolo 32
01:38:24.357 : :Capitolo 33
01:39:48.274 : :Capitolo 34
01:43:01.676 : :Capitolo 35
01:44:28.262 : :Capitolo 36
Facebook Twitter Digg Reddit LinkedIn StumbleUpon Email
Show Demonoid some love with BitCoin: 1DNoidyJgB159bLJT5hDnCkZ4uQrhkfBVk How to get BitCoins?
Peers: 8 seeders, 0 leechers, 1285 total - Updated: 352 hours 23 minutes 34 seconds ago
Size: 2.43 GB  

Sponsored links
Related torrents
Torrents you may also like:
Download this torrent
Extra information
Tracker: udp://tracker.torrent.eu.org:451/announce
Torrent hash: EEBC89FB 34CEC960 C0118172 7E122BE5 01C1FD77
Files described inside the torrent: 1 [ Click here to show the full list ]
Comments
No comments posted yet

Disclaimer: None of the files shown here are actually hosted or transmitted by this server. The links are provided solely by this site's users. The site moderation is also a service provided by the site's users. The administrator of this site (demonoid.is) cannot be held responsible for what its users post, or any other actions of its users. You may not use this site to distribute or download any material when you do not have the legal rights to do so. It is your own responsibility to adhere to these terms.

By using this site you indicate your agreement to our terms and conditions
   
Link to us | Contact us | API | Feeds/RSS | DMCA
This site and the Demonoid logo are Copyright © Demonoid. All rights reserved.

Show Demonoid some love with 1DNoidyJgB159bLJT5hDnCkZ4uQrhkfBVk