User log in
User registration
Registrations are closed. If you have an invitation code, click here.
Email: forgotten email?
Password: lost pass?
  Resend activation email
Get VPN Now for FREE! Protect your privacy! Use a VPN When Downloading Torrents
Your IP Address is . Location is .
Your Internet Provider is tracking your torrent activity! Hide your IP ADDRESS with a VPN!
We strongly recommend using Trust Zone VPN to anonymize your torrenting. It's FREE!
Also, while you are using Th3c6b5arusj28bbd1t v7f1a90Zone VPN you get No Ads on Demonoid site Get j28bbd1VPN Nj28bbd1ow!
Details for Jurassic World Dominion (2022) READNFO NEW SOURCE CAM XViD NOiD
Created by Ratio: 1.00DTRG 22 days ago 0   0
Movies : Action : Cam : English


tmpposter15830.jpg


Format : AVI
Format/Info : Audio Video Interleave
File size : 1.38 GiB
Duration : 2 h 17 min
Overall bit rate : 1 443 kb/s
Writing application : VirtualDubMod 1.5.10.2 (build 2542/release)
Writing library : VirtualDubMod build 2542/release

Video
ID : 0
Format : MPEG-4 Visual
Format profile : Advanced [email protected]
Format settings : BVOP2
Format settings, BVOP : 2
Format settings, QPel : No
Format settings, GMC : No warppoints
Format settings, Matrix : Default (H.263)
Muxing mode : Packed bitstream
Codec ID : XVID
Codec ID/Hint : XviD
Duration : 2 h 17 min
Bit rate : 1 307 kb/s
Width : 720 pixels
Height : 344 pixels
Display aspect ratio : 2.093
Frame rate : 24.000 FPS
Color space : YUV
Chroma subsampling : 4:2:0
Bit depth : 8 bits
Scan type : Progressive
Compression mode : Lossy
Bits/(Pixel*Frame) : 0.220
Stream size : 1.25 GiB (91%)
Writing library : XviD 69

Audio
ID : 1
Format : MPEG Audio
Format version : Version 1
Format profile : Layer 3
Codec ID : 55
Codec ID/Hint : MP3
Duration : 2 h 15 min
Bit rate mode : Constant
Bit rate : 128 kb/s
Channel(s) : 2 channels
Sampling rate : 44.1 kHz
Compression mode : Lossy
Stream size : 124 MiB (9%)
Alignment : Split across interleaves
Interleave, duration : 42 ms (1.01 video frame)
Interleave, preload duratio : 500 ms







https://www.imdb.com/title/tt8041270/

Four years after the destruction of Isla Nublar, dinosaurs now live--and hunt--alongside humans all over the world. This fragile balance will reshape the future and determine, once and for all, whether human beings are to remain the apex predators on a planet they now share with history's most fearsome creatures in a new Era.





vlcsnap-2022-06-14-07h02m09s454.png


vlcsnap-2022-06-14-07h03m35s366.png


vlcsnap-2022-06-14-07h04m34s692.png


vlcsnap-2022-06-14-07h11m30s688.png







Source used

Video - Jurassic World Dominion (2022) Original Hindi Dubbed 1080p HQ S-Print x264 AAC - CineVood -Tnx

Audio - Jurassic.World.Dominion.2022.720p.HDCAM-C1NEM4 - Tnx



For the encoders out there wanting to know how to do this one

First up i encoded the video, then cut out the adverts, there's 2 throughout the video and one at the end. Up to you whether you cut the one out that's after it finishes.

Then get your audio and do the same there's adverts in the video from the previous CAM which contained the English audio, cut them out.

If you get all of your cuts just right the audio will then fit right over the top of the New Audio

Been 10 years since i've done one like this so my audio cuts were not exactly right, so was just a case of watching Video and cutting and off setting audio to sync it up.


Would i watch this?...No but purely because i want to see this movie and it deserves HD. If you are going to watch it, as it is better than the previous source, watch it on a handheld device or small TV

Anyway good luck any encoders giving it a go.


CHECK OUT THE SAMPLE INCLUDED 1ST


Facebook Twitter Digg Reddit LinkedIn StumbleUpon Email
Show Demonoid some love with BitCoin: 1DNoidyJgB159bLJT5hDnCkZ4uQrhkfBVk How to get BitCoins?
Peers: 1 seeders, 0 leechers, 41 total - Updated: 6 hours 26 minutes 4 seconds ago
Size: 1.40 GB  

Sponsored links
Related torrents
Torrents you may also like:
Download this torrent
Extra information
Tracker: https://inferno.demonoid.is/announce
Torrent hash: 21DA7EDF 73D7248E A2FFAD1B 000303E2 40529405
Files described inside the torrent: 3 [ Click here to show the full list ]
Comments
No comments posted yet

Disclaimer: None of the files shown here are actually hosted or transmitted by this server. The links are provided solely by this site's users. The site moderation is also a service provided by the site's users. The administrator of this site (demonoid.is) cannot be held responsible for what its users post, or any other actions of its users. You may not use this site to distribute or download any material when you do not have the legal rights to do so. It is your own responsibility to adhere to these terms.

By using this site you indicate your agreement to our terms and conditions
   
Link to us | Contact us | API | Feeds/RSS | DMCA
This site and the Demonoid logo are Copyright © Demonoid. All rights reserved.

Show Demonoid some love with 1DNoidyJgB159bLJT5hDnCkZ4uQrhkfBVk