User log in
User registration
Registrations are open
Click here to register
Email: forgotten email?
Password: lost pass?
  Resend activation email
Get VPN Now for FREE! Get VPN Now for FREE! Get VPN Now for FREE! Get VPN Now for FREE! Get VPN Now for FREE! Get VPN Now for FREE! Get VPN Now for FREE! Get VPN Now for FREE! Protect your privacy! Use a VPN When Downloading Torrents
Your IP Address is . Location is .
Your Internet Provider is tracking your torrent activity! Hide your IP ADDRESS with a VPN!
We strongly recommend using Trust.Zone VPN to anonymize your torrenting!
Also, while you are using Tra8ec1d3ust.w5e2281Zone VPN you get No Ads on Demonoid site Get w5e2281VPN Nw5e2281ow!
Details for Top Gun Maverick 2022 720p TS XViD TD
Created by Ratio: 1.00DTRG 3 months ago 0   0
Movies : Action : Cam : English


?url=https%3A%2F%2Fcalifornia-times-brig...12-rgb.jpg



Format : AVI
Format/Info : Audio Video Interleave
Format profile : OpenDML
File size : 2.87 GiB
Duration : 2 h 2 min
Overall bit rate : 3 360 kb/s
Writing application : VirtualDubMod 1.5.10.2 (build 2542/release)
Writing library : VirtualDubMod build 2542/release

Video
ID : 0
Format : MPEG-4 Visual
Format profile : Advanced [email protected]
Format settings : BVOP2
Format settings, BVOP : 2
Format settings, QPel : No
Format settings, GMC : No warppoints
Format settings, Matrix : Default (H.263)
Muxing mode : Packed bitstream
Codec ID : XVID
Codec ID/Hint : XviD
Duration : 2 h 2 min
Bit rate : 3 123 kb/s
Width : 1 280 pixels
Height : 504 pixels
Display aspect ratio : 2.540
Frame rate : 29.970 (30000/1001) FPS
Color space : YUV
Chroma subsampling : 4:2:0
Bit depth : 8 bits
Scan type : Progressive
Compression mode : Lossy
Bits/(Pixel*Frame) : 0.162
Stream size : 2.67 GiB (93%)
Writing library : XviD 69

Audio
ID : 1
Format : MPEG Audio
Format version : Version 1
Format profile : Layer 3
Codec ID : 55
Codec ID/Hint : MP3
Duration : 2 h 2 min
Bit rate mode : Constant
Bit rate : 224 kb/s
Channel(s) : 2 channels
Sampling rate : 48.0 kHz
Compression mode : Lossy
Stream size : 196 MiB (7%)
Alignment : Aligned on interleaves
Interleave, duration : 33 ms (1.00 video frame)
Interleave, preload duratio : 504 ms
Writing library : LAME3.99.5








https://www.imdb.com/title/tt1745960/


Storyline
After more than thirty years of service as one of the Navy's top aviators, Pete Mitchell is where he belongs, pushing the envelope as a courageous test pilot and dodging the advancement in rank that would ground him.








vlcsnap-2022-06-29-19h13m52s046.png [ibb.co]


vlcsnap-2022-06-29-19h10m50s764.png [ibb.co]


vlcsnap-2022-06-29-19h14m37s554.png [ibb.co]


vlcsnap-2022-06-29-19h14m52s300.png [ibb.co]


vlcsnap-2022-06-29-19h16m40s312.png [ibb.co]









Sources used

Top.Gun.Maverick.2022.720p.HDTS.x264-iDiOTS_CMN - Tnx

Decided to cut this up and resync as nobody else seems to be able to do it, job done.

What's the point in every one re-encoding the same out of sync vid? c'mon get with it you're either a so called encoder or not

Flitered vid the way i like it and here we have it.


Best 720p copy to date


CHECK THE SAMPLE OUT TO SEE THE QUALITY


Facebook Twitter Digg Reddit LinkedIn StumbleUpon Email
Show Demonoid some love with BitCoin: 1DNoidyJgB159bLJT5hDnCkZ4uQrhkfBVk How to get BitCoins?
Peers: 1 seeders, 0 leechers, 215 total - Updated: 122 hours 27 minutes 2 seconds ago
Size: 2.89 GB  

Sponsored links
Related torrents
Torrents you may also like:
Download this torrent
Extra information
Tracker: https://inferno.demonoid.is/announce
Torrent hash: 1A2D6CF1 F31E5AFA 2D167887 D5F0CF7E DA1F955A
Files described inside the torrent: 3 [ Click here to show the full list ]
Comments
<< Prev        Next >>
| 1 - 3 | 3 items total
Posted by Ratio: 2.52burty 3 months ago [ Complain ] [ Send PM ]
thanks for your skills
Posted by Ratio: 1.00DTRG 3 months ago [ Complain ] [ Send PM ]
Wink
Posted by Ratio: 1.00ChargerFan559 3 months ago [ Complain ] [ Send PM ]
Stoked! Appreciate your work brutha, Thank you
| 1 - 3 | 3 items total
<< Prev        Next >>

Disclaimer: None of the files shown here are actually hosted or transmitted by this server. The links are provided solely by this site's users. The site moderation is also a service provided by the site's users. The administrator of this site (demonoid.is) cannot be held responsible for what its users post, or any other actions of its users. You may not use this site to distribute or download any material when you do not have the legal rights to do so. It is your own responsibility to adhere to these terms.

By using this site you indicate your agreement to our terms and conditions
   
Link to us | Contact us | API | Feeds/RSS | DMCA
This site and the Demonoid logo are Copyright © Demonoid. All rights reserved.

Show Demonoid some love with 1DNoidyJgB159bLJT5hDnCkZ4uQrhkfBVk